Чужестранка / Outlander / Сезон: 4 / Серии: 1-8 (13) [WEB-DL 1080p]

Тема в разделе "Чужестранка", создана пользователем Devzz, 1 янв 2019.

  1. Devzz

    Devzz Administrator Команда форума

    Сообщения:
    233
    Чужестранка / Outlander
    4 сезон 1-8 серии

    Год выпуска: 2018
    Страна: США, Великобритания
    Жанр: фэнтези, драма, мелодрама
    Продолжительность: 13 х ~55-89 мин
    Озвучание: профессиональное многоголосое закадровое (FocusX)
    Субтитры
    : русские

    Режиссёры: Метин Хусейн, Дуглас Маккиннон

    В ролях: Катрина Балф, Сэм Юэн, Тобайас Мензис, Дункан Лакруа, Стэнли Вебер и другие


    Описание: Клэр, работавшая медсестрой во время Второй мировой войны, случайно перемещается во времени и попадает в 1743 год. В этом мире, полном приключений, она знакомится с шотландским рыцарем Джейми. У героев завязывается страстный роман, несмотря на то, что сердце Клэр разрывается между двумя мужчинами — Джейми и ее мужем Фрэнком, который остался в другом времени.



    Качество: WEB-DL 1080p
    Видео: 1920x1080 (16:9), 23,976 fps, MPEG-4 AVC ~6000
    Аудио Rus: 48 kHz, AC3, 6 ch, ~640 kbps
    Аудио Eng: 48 kHz, AC3, 6 ch, ~640 kbps


    General
    Unique ID : 215844233843653361487084895149886135062 (0xA262165B25702278458D7FCAA7F9DB16)
    Complete name : Outlander.S04E01.WEB-DL.1080p.FocusX.mkv
    Format : Matroska
    Format version : Version 4
    File size : 3.07 GiB
    Duration : 1 h 4 min
    Overall bit rate : 6 810 kb/s
    Movie name : Outlander 4x01 @ FocusX
    Encoded date : UTC 2019-01-01 15:48:51
    Writing application : mkvmerge v29.0.0 ('Like It Or Not') 64-bit
    Writing library : libebml v1.3.6 + libmatroska v1.4.9

    Video
    ID : 1
    Format : AVC
    Format/Info : Advanced Video Codec
    Format profile : High@L4
    Format settings : CABAC / 4 Ref Frames
    Format settings, CABAC : Yes
    Format settings, ReFrames : 4 frames
    Codec ID : V_MPEG4/ISO/AVC
    Duration : 1 h 4 min
    Bit rate : 5 395 kb/s
    Width : 1 920 pixels
    Height : 1 080 pixels
    Display aspect ratio : 16:9
    Frame rate mode : Constant
    Frame rate : 23.976 (24000/1001) FPS
    Color space : YUV
    Chroma subsampling : 4:2:0
    Bit depth : 8 bits
    Scan type : Progressive
    Bits/(Pixel*Frame) : 0.109
    Stream size : 2.43 GiB (79%)
    Default : Yes
    Forced : No
    Color range : Limited
    Color primaries : BT.709
    Transfer characteristics : BT.709
    Matrix coefficients : BT.709

    Audio #1
    ID : 2
    Format : AC-3
    Format/Info : Audio Coding 3
    Commercial name : Dolby Digital
    Codec ID : A_AC3
    Duration : 1 h 4 min
    Bit rate mode : Constant
    Bit rate : 640 kb/s
    Channel(s) : 6 channels
    Channel layout : L R C LFE Ls Rs
    Sampling rate : 48.0 kHz
    Frame rate : 31.250 FPS (1536 SPF)
    Bit depth : 16 bits
    Compression mode : Lossy
    Stream size : 296 MiB (9%)
    Title : MVO FocusX
    Language : Russian
    Service kind : Complete Main
    Default : Yes
    Forced : No

    Audio #2
    ID : 3
    Format : AC-3
    Format/Info : Audio Coding 3
    Commercial name : Dolby Digital
    Codec ID : A_AC3
    Duration : 1 h 4 min
    Bit rate mode : Constant
    Bit rate : 640 kb/s
    Channel(s) : 6 channels
    Channel layout : L R C LFE Ls Rs
    Sampling rate : 48.0 kHz
    Frame rate : 31.250 FPS (1536 SPF)
    Bit depth : 16 bits
    Compression mode : Lossy
    Stream size : 296 MiB (9%)
    Language : English
    Service kind : Complete Main
    Default : No
    Forced : No
     
    • СКАЧАТЬ MAGNET
      (121,6 КБ, 456 Просмотров, Размер: 24,2 ГБ, Сидеры: 0, Личеры: 0, Золото
    • Загрузка...
    Последнее редактирование: 15 апр 2019
    Aivin и rincewind1905wizzard нравится это.
  2. Aivin
    Aivin
    Спасибо за озвучивание! А, когда продолжение? :rolleyes:
    -----------------
    Не могу скачать, нет раздающих :( В раздаче указан 1, но все равно не скачивается
    7 окт 2019