Метод Комински / The Kominsky Method / Сезон: 1 / Серии: 1 (8) [WEB-DL 1080p]

Тема в разделе "Метод Комински", создана пользователем Devzz, 3 дек 2018.

  1. Devzz

    Devzz Administrator Команда форума

    Сообщения:
    163
    Метод Комински
    The Kominsky Method
    1 сезон 1 серия

    Год выпуска: 2018
    Страна: США
    Жанр: драма, комедия
    Продолжительность: 8 х ~ 20-30 мин
    Озвучание: профессиональное многоголосое закадровое, без цензуры (FocusStudio)
    Cубтитры
    : нет

    Режиссёр: Энди Теннант, Бет МакКарти-Миллер, Дональд Питри и другие

    В ролях: Майкл Дуглас, Алан Аркин, Сара Бэйкер, Нэнси Трэвис, Дэнни ДеВито, Дженна Линг, Кэйси Томас Браун, Эшли ЛаТроп, Грэхэм Роджерс, Мелисса Тэнг и другие


    Описание: Сэнди Комински когда-то был популярным актёром, но слава не задержалась в его жизни, и теперь он преподает актёрское мастерство в Голливуде.


    Релиз: [​IMG]


    Качество: WEB-DL 1080p
    Формат: MKV
    Видео: 1920x1080, 23.976 fps, MPEG-4 AVC ~ 4000-5000 kbps avg
    Аудио Rus: 48 kHz, AC3, 6 ch, 640 kbps
    Аудио Eng: 48 kHz, AC3, 6 ch, 640 kbps

    Код:
    General
    Unique ID : 198915366443784523808347892003804301217 (0x95A5B4C0903BA60AAEFDB15D577447A1)
    Complete name : The.Kominsky.Method.S01E01.WEB-DL.1080p.FocusX.mkv
    Format : Matroska
    Format version : Version 4
    File size : 1.08 GiB
    Duration : 33 min 50 s
    Overall bit rate mode : Variable
    Overall bit rate : 4 567 kb/s
    Movie name : The Kominsky Method 1x01 @ FocusX
    Encoded date : UTC 2018-12-03 14:50:52
    Writing application : mkvmerge v8.1.0 ('Psychedelic Postcard') 64bit
    Writing library : libebml v1.3.1 + libmatroska v1.4.2
    
    Video
    ID : 1
    Format : AVC
    Format/Info : Advanced Video Codec
    Format profile : Main@L4
    Format settings : CABAC / 3 Ref Frames
    Format settings, CABAC : Yes
    Format settings, ReFrames : 3 frames
    Codec ID : V_MPEG4/ISO/AVC
    Duration : 33 min 50 s
    Bit rate mode : Variable
    Bit rate : 3 320 kb/s
    Maximum bit rate : 4 980 kb/s
    Width : 1 920 pixels
    Height : 1 080 pixels
    Display aspect ratio : 16:9
    Frame rate mode : Constant
    Frame rate : 23.976 (24000/1001) FPS
    Color space : YUV
    Chroma subsampling : 4:2:0
    Bit depth : 8 bits
    Scan type : Progressive
    Bits/(Pixel*Frame) : 0.067
    Stream size : 774 MiB (70%)
    Writing library : x264 core 148 r2715 7e75228
    Encoding settings : cabac=1 / ref=3 / deblock=1:0:0 / analyse=0x1:0x111 / me=umh / subme=10 / psy=1 / psy_rd=1.00:0.00 / mixed_ref=1 / me_range=24 / chroma_me=1 / trellis=2 / 8x8dct=0 / cqm=0 / deadzone=21,11 / fast_pskip=1 / chroma_qp_offset=-2 / threads=8 / lookahead_threads=1 / sliced_threads=0 / nr=0 / decimate=1 / interlaced=0 / bluray_compat=0 / stitchable=1 / constrained_intra=0 / bframes=2 / b_pyramid=0 / b_adapt=2 / b_bias=0 / direct=3 / weightb=1 / open_gop=0 / weightp=2 / keyint=48 / keyint_min=25 / scenecut=0 / intra_refresh=0 / rc_lookahead=48 / rc=2pass / mbtree=1 / bitrate=3320 / ratetol=1.0 / qcomp=0.50 / qpmin=6 / qpmax=51 / qpstep=4 / cplxblur=20.0 / qblur=0.5 / vbv_maxrate=4980 / vbv_bufsize=6640 / nal_hrd=vbr / filler=0 / ip_ratio=1.40 / aq=1:1.00
    Default : Yes
    Forced : No
    
    Audio #1
    ID : 2
    Format : AC-3
    Format/Info : Audio Coding 3
    Commercial name : Dolby Digital
    Codec ID : A_AC3
    Duration : 33 min 50 s
    Bit rate mode : Constant
    Bit rate : 640 kb/s
    Channel(s) : 6 channels
    Channel layout : L R C LFE Ls Rs
    Sampling rate : 48.0 kHz
    Frame rate : 31.250 FPS (1536 SPF)
    Bit depth : 16 bits
    Compression mode : Lossy
    Stream size : 155 MiB (14%)
    Title : MVO FocusStudio
    Language : Russian
    Service kind : Complete Main
    Default : Yes
    Forced : No
    
    Audio #2
    ID : 3
    Format : AC-3
    Format/Info : Audio Coding 3
    Commercial name : Dolby Digital
    Codec ID : A_AC3
    Duration : 33 min 50 s
    Bit rate mode : Constant
    Bit rate : 640 kb/s
    Channel(s) : 6 channels
    Channel layout : L R C LFE Ls Rs
    Sampling rate : 48.0 kHz
    Frame rate : 31.250 FPS (1536 SPF)
    Bit depth : 16 bits
    Compression mode : Lossy
    Stream size : 155 MiB (14%)
    Language : English
    Service kind : Complete Main
    Default : No
    Forced : No
    
     
    • СКАЧАТЬ MAGNET
      (5,7 КБ, 12 Просмотров, Размер: 1,1 ГБ, Сидеры: 2, Личеры: 0, Скачали: 1) Золото
    • Загрузка...
    Последнее редактирование: 3 дек 2018