Изнанка дела / Case Histories / Сезон: 1 / Серии: 1-6 (6) [WEB-DL 1080p]

Тема в разделе "Изнанка дела", создана пользователем Devzz, 27 ноя 2018.

  1. Devzz

    Devzz Administrator Команда форума

    Сообщения:
    163
    Изнанка дела / Case Histories
    1 сезон


    Год выпуска: 2011
    Страна: Великобритания
    Жанр: драма, детектив
    Продолжительность: 6 х ~ 50 мин
    Озвучание: профессиональное многоголосое закадровое (FocusStudio)
    Субтитры
    : нет

    Режиссер: Билл Андерсон, Марк Йобст, Дэн Зефф и другие

    В ролях: Джейсон Айзекс, Аманда Аббингтон, Зэйв Эштон, Милли Иннес, Наташа Литтл, Кирсти Митчелл, Эдвард Корри, Маартен Стивен, Рори Барраклаф, Пэтерсон Джозеф и др.

    Описание: Разведенный частный детектив Джексон Броуди часто отказывается вести дело, если клиент ему неприятен. Зато ввязывается в дела, где его помощь вроде бы и не нужна, а полиция, в которой он долго работал и откуда ушёл с большим скандалом так прямо и намекает, чтобы он держался в стороне. Однако наш герой не из таких. Куда детектива Джексона Броуди приведёт его собственное любопытство, пережитый им опыт потери сестры и насыщенная преступлениями жизнь провинциального Эдинбурга.



    Релиз: [​IMG]

    Качество: WEB-DL 1080p
    Формат: MKV
    Видео: 1920x1080, 25 fps, x264 ~6000 kbps
    Аудио Rus: AC3, 48 kHz, 2 ch, 224 kbps
    Аудио Eng: AC3, 48 kHz, 2 ch, 224 kbps

    Код:
    General
    Unique ID : 194384023853674650098875614175398120238 (0x923D0050488CF0B4FC4B45600D6ECB2E)
    Complete name : Case.Histories.S01E01.WEB-DL.1080p.FocusX.mkv
    Format : Matroska
    Format version : Version 4
    File size : 2.57 GiB
    Duration : 59 min 14 s
    Overall bit rate mode : Variable
    Overall bit rate : 6 211 kb/s
    Movie name : Case Histories 1x01 @ FocusStudio
    Encoded date : UTC 2018-11-25 15:13:58
    Writing application : mkvmerge v21.0.0 ('Tardigrades Will Inherit The Earth') 64-bit
    Writing library : libebml v1.3.5 + libmatroska v1.4.8
    
    Video
    ID : 1
    Format : AVC
    Format/Info : Advanced Video Codec
    Format profile : High@L4
    Format settings : CABAC / 4 Ref Frames
    Format settings, CABAC : Yes
    Format settings, ReFrames : 4 frames
    Codec ID : V_MPEG4/ISO/AVC
    Duration : 59 min 14 s
    Bit rate mode : Variable
    Bit rate : 5 640 kb/s
    Maximum bit rate : 15.0 Mb/s
    Width : 1 920 pixels
    Height : 1 080 pixels
    Display aspect ratio : 16:9
    Frame rate mode : Constant
    Frame rate : 25.000 FPS
    Color space : YUV
    Chroma subsampling : 4:2:0
    Bit depth : 8 bits
    Scan type : Progressive
    Bits/(Pixel*Frame) : 0.109
    Stream size : 2.33 GiB (91%)
    Default : Yes
    Forced : No
    Color range : Limited
    Color primaries : BT.709
    Transfer characteristics : BT.709
    Matrix coefficients : BT.709
    
    Audio #1
    ID : 2
    Format : AC-3
    Format/Info : Audio Coding 3
    Commercial name : Dolby Digital
    Codec ID : A_AC3
    Duration : 59 min 14 s
    Bit rate mode : Constant
    Bit rate : 224 kb/s
    Channel(s) : 2 channels
    Channel layout : L R
    Sampling rate : 48.0 kHz
    Frame rate : 31.250 FPS (1536 SPF)
    Bit depth : 16 bits
    Compression mode : Lossy
    Stream size : 94.9 MiB (4%)
    Title : MVO FocusX
    Language : Russian
    Service kind : Complete Main
    Default : Yes
    Forced : No
    
    Audio #2
    ID : 3
    Format : AC-3
    Format/Info : Audio Coding 3
    Commercial name : Dolby Digital
    Codec ID : A_AC3
    Duration : 59 min 14 s
    Bit rate mode : Constant
    Bit rate : 224 kb/s
    Channel(s) : 2 channels
    Channel layout : L R
    Sampling rate : 48.0 kHz
    Frame rate : 31.250 FPS (1536 SPF)
    Bit depth : 16 bits
    Compression mode : Lossy
    Stream size : 94.9 MiB (4%)
    Language : English
    Service kind : Complete Main
    Default : No
    Forced : No
    
    Text
    ID : 4
    Format : ASS
    Codec ID : S_TEXT/ASS
    Codec ID/Info : Advanced Sub Station Alpha
    Compression mode : Lossless
    Language : Russian
    Default : Yes
    Forced : Yes
    
     
    • СКАЧАТЬ MAGNET
      (73,2 КБ, 32 Просмотров, Размер: 14,5 ГБ, Сидеры: 2, Личеры: 0, Скачали: 5) Золото
    • Загрузка...
  2. Devzz
    Devzz
    Дубль первой серии удален, вторая возвращена на законное место.
    28 ноя 2018