Леденящие кровь приключения Сабрины / Chilling Adventures of Sabrina / Сезон: 1 / Серии: 1-10

Тема в разделе "Леденящие кровь приключения Сабрины", создана пользователем Devzz, 5 ноя 2018.

  1. Devzz

    Devzz Administrator Команда форума

    Сообщения:
    151
    Леденящие кровь приключения Сабрины
    Chilling Adventures of Sabrina

    1 сезон

    Год выпуска: 2018
    Страна: США
    Жанр: фэнтези, триллер, драма, детектив, мелодрама
    Продолжительность: 10 х ~ 55-60 мин
    Озвучание: профессиональное многоголосое закадровое (FocusStudio)
    Cубтитры
    : нет

    Режиссёр: Роб Шейденгланц, Мэгги Кили, Ли Толанд Кригер и другие

    В ролях: Кирнан Шипка, Росс Линч, Люси Дэвис, Chance Perdomo, Мишель Гомес, Жасмин Сабино, Тати Габриэль, Ричард Койл, Миранда Отто и другие


    Описание: Ведьма Сабрина пытается найти истинную себя между натурами смертной и ведьмы, при этом ей придётся противостоять злым силам, которые угрожают ей, её семье и всему миру людей.


    Релиз: [​IMG]

    Качество: WEB-DL 1080p
    Формат: MKV
    Видео: 1920x1080, 23.976 fps, MPEG-4 AVC ~4000 kbps avg
    Аудио Rus: 48 kHz, AC3, 6 ch, 384 kbps
    Аудио Eng: 48 kHz, AC3, 6 ch, 384 kbps

    Код:
    General
    Unique ID : 228707594543488107338910660596162116566 (0xAC0F7B00FFFBFB83C0BEF27550183BD6)
    Complete name : Chilling.Adventures.of.Sabrina.S01E01.WEB-DL.1080p.FocusX.mkv
    Format : Matroska
    Format version : Version 4 / Version 2
    File size : 2.20 GiB
    Duration : 1 h 1 min
    Overall bit rate mode : Variable
    Overall bit rate : 5 099 kb/s
    Movie name : Chilling Adventures of Sabrina 1x01 @ FocusX
    Encoded date : UTC 2018-11-04 19:13:54
    Writing application : mkvmerge v21.0.0 ('Tardigrades Will Inherit The Earth') 64-bit
    Writing library : libebml v1.3.5 + libmatroska v1.4.8
    
    Video
    ID : 1
    Format : AVC
    Format/Info : Advanced Video Codec
    Format profile : Main@L4
    Format settings : CABAC / 3 Ref Frames
    Format settings, CABAC : Yes
    Format settings, ReFrames : 3 frames
    Codec ID : V_MPEG4/ISO/AVC
    Duration : 1 h 1 min
    Bit rate mode : Variable
    Bit rate : 4 420 kb/s
    Maximum bit rate : 6 630 kb/s
    Width : 1 920 pixels
    Height : 1 080 pixels
    Display aspect ratio : 16:9
    Frame rate mode : Constant
    Frame rate : 23.976 (24000/1001) FPS
    Color space : YUV
    Chroma subsampling : 4:2:0
    Bit depth : 8 bits
    Scan type : Progressive
    Bits/(Pixel*Frame) : 0.089
    Stream size : 1.82 GiB (83%)
    Writing library : x264 core 148 r2715 7e75228
    Encoding settings : cabac=1 / ref=3 / deblock=1:0:0 / analyse=0x1:0x111 / me=umh / subme=10 / psy=1 / psy_rd=1.00:0.00 / mixed_ref=1 / me_range=24 / chroma_me=1 / trellis=2 / 8x8dct=0 / cqm=0 / deadzone=21,11 / fast_pskip=1 / chroma_qp_offset=-2 / threads=8 / lookahead_threads=1 / sliced_threads=0 / nr=0 / decimate=1 / interlaced=0 / bluray_compat=0 / stitchable=1 / constrained_intra=0 / bframes=2 / b_pyramid=0 / b_adapt=2 / b_bias=0 / direct=3 / weightb=1 / open_gop=0 / weightp=2 / keyint=48 / keyint_min=25 / scenecut=0 / intra_refresh=0 / rc_lookahead=48 / rc=2pass / mbtree=1 / bitrate=4420 / ratetol=1.0 / qcomp=0.50 / qpmin=6 / qpmax=51 / qpstep=4 / cplxblur=20.0 / qblur=0.5 / vbv_maxrate=6630 / vbv_bufsize=8840 / nal_hrd=vbr / filler=0 / ip_ratio=1.40 / aq=1:1.00
    Default : Yes
    Forced : No
    
    Audio #1
    ID : 2
    Format : AC-3
    Format/Info : Audio Coding 3
    Codec ID : A_AC3
    Duration : 1 h 1 min
    Bit rate mode : Constant
    Bit rate : 384 kb/s
    Channel(s) : 6 channels
    Channel positions : Front: L C R, Side: L R, LFE
    Sampling rate : 48.0 kHz
    Frame rate : 31.250 FPS (1536 SPF)
    Bit depth : 16 bits
    Compression mode : Lossy
    Stream size : 170 MiB (8%)
    Title : MVO FocusX
    Language : Russian
    Service kind : Complete Main
    Default : Yes
    Forced : No
    
    Audio #2
    ID : 3
    Format : AC-3
    Format/Info : Audio Coding 3
    Codec ID : A_AC3
    Duration : 1 h 1 min
    Bit rate mode : Constant
    Bit rate : 384 kb/s
    Channel(s) : 6 channels
    Channel positions : Front: L C R, Side: L R, LFE
    Sampling rate : 48.0 kHz
    Frame rate : 31.250 FPS (1536 SPF)
    Bit depth : 16 bits
    Compression mode : Lossy
    Stream size : 170 MiB (8%)
    Title : English
    Language : English
    Service kind : Complete Main
    Default : No
    Forced : No
    
     
    • СКАЧАТЬ MAGNET
      (84,8 КБ, 13 Просмотров, Размер: 16,7 ГБ, Сидеры: 1, Личеры: 1, Скачали: 3) Золото
    • Загрузка...
  2. anthraxxx
    anthraxxx
    Сутки по 00... в uTorrente- Passkey not found:(
    8 ноя 2018 в 09:11
    1. Devzz
      Devzz
      8 ноя 2018 в 12:57
  3. Сообщение от было скрыто от публичного просмотра.
    8 ноя 2018 в 13:42 Показать
  4. Сообщение от было скрыто от публичного просмотра.
    8 ноя 2018 в 13:46 Показать
  5. Сообщение от было скрыто от публичного просмотра.
    8 ноя 2018 в 22:27 Показать