Джек Райан / Jack Ryan / Сезон: 1 / Серии: 1-8 (8) [WEB-DL 1080p]

Тема в разделе "Джек Райан", создана пользователем Devzz, 9 сен 2018.

  1. Devzz

    Devzz Administrator Команда форума

    Сообщения:
    154
    Джек Райан / Jack Ryan
    1 сезон

    Год выпуска: 2018
    Страна: США
    Жанр: драма, боевик, триллер, криминал
    Продолжительность: 8 х ~ 40-50 мин
    Озвучание: профессиональное многоголосое закадровое, без цензуры (FocusStudio)
    Cубтитры
    : нет

    Режиссёр: Патрисия Ригген, Дэниэл Сакхайм, Дэнни Гордон и другие

    В ролях: Джон Красински, Уенделл Пирс, Джон Хугенэккер, Эбби Корниш, Али Сулиман, Хааз Слейман, Эммануэль Люссье Мартинес, Йован Адепо и другие


    Описание: Аналитик ЦРУ Джек Райан натыкается на подозрительную серию банковских переводов и начинает собственное расследование. Оно заставляет героя оставить безопасную офисную работу и включиться в смертельную игру кошки-мышки по всей Европе и на Ближнем Востоке с лидером террористов, готовящим массированную атаку на США и её союзников.


    Релиз: [​IMG]

    Качество: WEB-DL 1080p
    Формат: MKV
    Видео: 1920x1080, 23.976 fps, MPEG-4 AVC ~10000 kbps avg
    Аудио Rus: 48 kHz, AC3, 6 ch, 640 kbps
    Аудио Eng: 48 kHz, AC3, 6 ch, 640 kbps

    Код:
    General
    Unique ID : 212568430395401997758857339156736874034 (0x9FEB30C6C52040558362D214018D9632)
    Complete name : Jack.Ryan.S01E01.WEB-DL.1080p.FocusStudio.mkv
    Format : Matroska
    Format version : Version 4 / Version 2
    File size : 5.63 GiB
    Duration : 1 h 4 min
    Overall bit rate mode : Variable
    Overall bit rate : 12.4 Mb/s
    Movie name : Jack Ryan 1x01 @ FocusStudio
    Encoded date : UTC 2018-09-09 13:16:14
    Writing application : mkvmerge v8.1.0 ('Psychedelic Postcard') 64bit
    Writing library : libebml v1.3.1 + libmatroska v1.4.2
    
    Video
    ID : 1
    Format : AVC
    Format/Info : Advanced Video Codec
    Format profile : High@L4
    Format settings : CABAC / 4 Ref Frames
    Format settings, CABAC : Yes
    Format settings, ReFrames : 4 frames
    Codec ID : V_MPEG4/ISO/AVC
    Duration : 1 h 4 min
    Bit rate mode : Variable
    Bit rate : 10.9 Mb/s
    Maximum bit rate : 15.0 Mb/s
    Width : 1 920 pixels
    Height : 1 080 pixels
    Display aspect ratio : 16:9
    Frame rate mode : Constant
    Frame rate : 23.976 (24000/1001) FPS
    Color space : YUV
    Chroma subsampling : 4:2:0
    Bit depth : 8 bits
    Scan type : Progressive
    Bits/(Pixel*Frame) : 0.219
    Stream size : 4.94 GiB (88%)
    Default : Yes
    Forced : No
    Color range : Limited
    Color primaries : BT.709
    Transfer characteristics : BT.709
    Matrix coefficients : BT.709
    
    Audio #1
    ID : 2
    Format : AC-3
    Format/Info : Audio Coding 3
    Codec ID : A_AC3
    Duration : 1 h 4 min
    Bit rate mode : Constant
    Bit rate : 640 kb/s
    Channel(s) : 6 channels
    Channel positions : Front: L C R, Side: L R, LFE
    Sampling rate : 48.0 kHz
    Frame rate : 31.250 FPS (1536 SPF)
    Bit depth : 16 bits
    Compression mode : Lossy
    Stream size : 298 MiB (5%)
    Title : MVO FocusStudio
    Language : Russian
    Service kind : Complete Main
    Default : Yes
    Forced : No
    
    Audio #2
    ID : 3
    Format : AC-3
    Format/Info : Audio Coding 3
    Codec ID : A_AC3
    Duration : 1 h 4 min
    Bit rate mode : Constant
    Bit rate : 640 kb/s
    Channel(s) : 6 channels
    Channel positions : Front: L C R, Side: L R, LFE
    Sampling rate : 48.0 kHz
    Frame rate : 31.250 FPS (1536 SPF)
    Bit depth : 16 bits
    Compression mode : Lossy
    Stream size : 298 MiB (5%)
    Language : English
    Service kind : Complete Main
    Default : No
    Forced : No
    
    Menu
    00:00:00.000 : en:Amazon Original
    00:00:05.000 : en:Title Sequence
    00:00:29.000 : en:Lebanon 1983
    00:02:44.000 : en:Washington D.C. present day
    00:10:54.000 : en:Al Mnajeer, Syria
    00:13:41.000 : en:Jack discovers a connection
    00:20:12.000 : en:Hanin has suspicions about their guest
    00:21:51.000 : en:Jack takes matters into his own hands
    00:23:37.000 : en:Greer confronts Ryan about his actions
    00:27:06.000 : en:A covert mission in Yemen
    00:31:05.000 : en:Jack takes an unexpected trip
    00:38:01.000 : en:Sarawat Mountains, Yemen
    00:42:14.000 : en:Jack visits the other prisoner
    00:45:55.000 : en:The base gets an unexpected delivery
    00:50:52.000 : en:Jack learns the truth the hard way
    01:02:58.000 : en:End Credits
    
     
    • СКАЧАТЬ MAGNET
      (160,7 КБ, 105 Просмотров, Размер: 32 ГБ, Сидеры: 1, Личеры: 0, Скачали: 4) Золото
    • Загрузка...
    Последнее редактирование: 28 сен 2018
    lipovan нравится это.