Наследники / Succession / Сезон: 1 / Серии: 1-10 (10) [WEB-DL 1080p]

Тема в разделе "Наследники", создана пользователем Devzz, 9 сен 2018.

  1. Devzz

    Devzz Administrator Команда форума

    Сообщения:
    147
    Наследники / Succession
    1 сезон

    Год выпуска: 2018
    Страна: США
    Жанр: драма, мелодрама
    Продолжительность: 10 х ~ 55-65 мин
    Озвучание: профессиональное многоголосое закадровое, без цензуры (FocusStudio)
    Субтитры
    : нет

    Режиссёры: Марк Майлод, Адам Аркин, Мигель Артета и другие

    В ролях: Хиам Аббасс, Николас Браун, Брайан Кокс, Киран Калкин, Питер Фридман, Натали Голд, Мэттью Макфэдиен, Алан Рак, Сара Снук, Джереми Стронг и другие

    Описание: Логан Рой — могущественный, но стареющий глава международного медийного конгломерата Waystar Royco. В будущем правление компанией должен принять старший сын, но прежде всей семье придется пережить интриги, предательство и неприкрытую борьбу за власть.


    Релиз: [​IMG]

    Качество: WEB-DL 1080p
    Формат: MKV
    Видео: 1920x1080 (16:9), 23.976 fps, MPEG-4 AVC ~12000 kbps
    Аудио Rus: 48 kHz, AC3, 6 ch, 640 kbps
    Аудио Eng: 48 kHz, AC3, 6 ch, 640 kbps

    Код:
    General
    Unique ID : 205218259209756823162349389457256018828 (0x9A63995BA640A97E80DB067675AAF38C)
    Complete name : Succession.S01.WEB-DL.1080p.FocusStudio/Succession.S01E01.WEB-DL.1080p.FocusStudio.mkv
    Format : Matroska
    Format version : Version 4 / Version 2
    File size : 6.17 GiB
    Duration : 1 h 1 min
    Overall bit rate : 14.3 Mb/s
    Movie name : Succession 1x01 @ FocusStudio
    Encoded date : UTC 2018-09-04 12:10:06
    Writing application : mkvmerge v8.1.0 ('Psychedelic Postcard') 64bit
    Writing library : libebml v1.3.1 + libmatroska v1.4.2
    
    Video
    ID : 1
    Format : AVC
    Format/Info : Advanced Video Codec
    Format profile : High@L4
    Format settings : CABAC / 4 Ref Frames
    Format settings, CABAC : Yes
    Format settings, ReFrames : 4 frames
    Codec ID : V_MPEG4/ISO/AVC
    Duration : 1 h 1 min
    Bit rate : 12.7 Mb/s
    Width : 1 920 pixels
    Height : 1 080 pixels
    Display aspect ratio : 16:9
    Frame rate mode : Constant
    Frame rate : 23.976 (24000/1001) FPS
    Color space : YUV
    Chroma subsampling : 4:2:0
    Bit depth : 8 bits
    Scan type : Progressive
    Bits/(Pixel*Frame) : 0.256
    Stream size : 5.49 GiB (89%)
    Default : Yes
    Forced : No
    Color range : Limited
    Color primaries : BT.709
    Transfer characteristics : BT.709
    Matrix coefficients : BT.709
    
    Audio #1
    ID : 2
    Format : AC-3
    Format/Info : Audio Coding 3
    Codec ID : A_AC3
    Duration : 1 h 1 min
    Bit rate mode : Constant
    Bit rate : 640 kb/s
    Channel(s) : 6 channels
    Channel positions : Front: L C R, Side: L R, LFE
    Sampling rate : 48.0 kHz
    Frame rate : 31.250 FPS (1536 SPF)
    Bit depth : 16 bits
    Compression mode : Lossy
    Stream size : 283 MiB (4%)
    Title : MVO FocusStudio
    Language : Russian
    Service kind : Complete Main
    Default : Yes
    Forced : No
    
    Audio #2
    ID : 3
    Format : AC-3
    Format/Info : Audio Coding 3
    Codec ID : A_AC3
    Duration : 1 h 1 min
    Bit rate mode : Constant
    Bit rate : 640 kb/s
    Channel(s) : 6 channels
    Channel positions : Front: L C R, Side: L R, LFE
    Sampling rate : 48.0 kHz
    Frame rate : 31.250 FPS (1536 SPF)
    Bit depth : 16 bits
    Compression mode : Lossy
    Stream size : 283 MiB (4%)
    Language : English
    Service kind : Complete Main
    Default : No
    Forced : No
    
     
    • СКАЧАТЬ MAGNET
      (227,8 КБ, 35 Просмотров, Размер: 45,4 ГБ, Сидеры: 2, Личеры: 0, Скачали: 1) Золото
    • Загрузка...
    Последнее редактирование: 28 сен 2018
    s_white нравится это.