Весьма Английский Скандал / A Very English Scandal / Сезон: 1 / Серии: 1-3 (3) [WEB-DL 1080p]

Тема в разделе "Весьма Английский Скандал", создана пользователем Devzz, 2 июл 2018.

  1. Devzz

    Devzz Administrator Команда форума

    Сообщения:
    154
    Весьма Английский Скандал
    A Very English Scandal

    1 сезон 1-3 серии


    Год выпуска: 2018
    Страна: Великобритания
    Жанр: драма, история
    Продолжительность: 3 х ~ 60 мин
    Озвучание: профессиональное многоголосое закадровое (FocusStudio)
    Субтитры
    : нет

    Режиссер: Стивен Фрирз

    В ролях: Хью Грант, Бен Уишоу, Алекс Дженнингс, Патриция Ходж, Пол Хилтон, Наоми Баттрик, Эндрю Френч, Морган Уоткинс, Моника Долан, Джейсон Уоткинс и др.

    Описание: Действие сериала разворачивается в 60-е годы в Великобритании, когда гомосексуализм только-только перестает быть уголовно наказуемым преступлением. Джереми Торп — самый молодой партийный лидер в стране за последние сто лет и глава либеральной партии — отчаянно пытается скрыть правду о своей сексуальной ориентации. Но пока бывший любовник Торпа Норман Скотт знает его секрет, блестящая карьера политика находится под угрозой. Главный герой видит только один путь заставить Скотта замолчать навсегда.



    Релиз: [​IMG]

    Качество: WEB-DL 1080p [Amazon]
    Формат: MKV
    Видео: 1920x1080, 25 fps, x264 ~8000kbps avg, 0.100 bit/pixel
    Аудио Rus: 48 kHz, AC3, 6 ch, 640 kbps
    Аудио Eng: 48 kHz, AC3, 6 ch, 640 kbps

    Код:
    General
    Unique ID : 246740549881257696777658038987559348643 (0xB9A080588B819F1DBDFA1201A05929A3)
    Complete name : A.Very.English.Scandal.S01E01.WEB-DL.1080p.FocusStudio.mkv
    Format : Matroska
    Format version : Version 4 / Version 2
    File size : 3.78 GiB
    Duration : 55 min 57 s
    Overall bit rate : 9 664 kb/s
    Movie name : A Very English Scandal 1x01 @ FocusStudio
    Encoded date : UTC 2018-07-01 17:40:39
    Writing application : mkvmerge v8.1.0 ('Psychedelic Postcard') 64bit
    Writing library : libebml v1.3.1 + libmatroska v1.4.2
    
    Video
    ID : 1
    Format : AVC
    Format/Info : Advanced Video Codec
    Format profile : High@L4
    Format settings : CABAC / 4 Ref Frames
    Format settings, CABAC : Yes
    Format settings, ReFrames : 4 frames
    Codec ID : V_MPEG4/ISO/AVC
    Duration : 55 min 57 s
    Bit rate : 8 192 kb/s
    Width : 1 920 pixels
    Height : 1 080 pixels
    Display aspect ratio : 16:9
    Frame rate mode : Constant
    Frame rate : 25.000 FPS
    Color space : YUV
    Chroma subsampling : 4:2:0
    Bit depth : 8 bits
    Scan type : Progressive
    Bits/(Pixel*Frame) : 0.158
    Stream size : 3.20 GiB (85%)
    Default : Yes
    Forced : No
    Color range : Limited
    Color primaries : BT.709
    Transfer characteristics : BT.709
    Matrix coefficients : BT.709
    
    Audio #1
    ID : 2
    Format : AC-3
    Format/Info : Audio Coding 3
    Codec ID : A_AC3
    Duration : 55 min 57 s
    Bit rate mode : Constant
    Bit rate : 640 kb/s
    Channel(s) : 6 channels
    Channel positions : Front: L C R, Side: L R, LFE
    Sampling rate : 48.0 kHz
    Frame rate : 31.250 FPS (1536 SPF)
    Bit depth : 16 bits
    Compression mode : Lossy
    Stream size : 256 MiB (7%)
    Title : MVO FocusStudio
    Language : Russian
    Service kind : Complete Main
    Default : Yes
    Forced : No
    
    Audio #2
    ID : 3
    Format : AC-3
    Format/Info : Audio Coding 3
    Codec ID : A_AC3
    Duration : 55 min 57 s
    Bit rate mode : Constant
    Bit rate : 640 kb/s
    Channel(s) : 6 channels
    Channel positions : Front: L C R, Side: L R, LFE
    Sampling rate : 48.0 kHz
    Frame rate : 31.250 FPS (1536 SPF)
    Bit depth : 16 bits
    Compression mode : Lossy
    Stream size : 256 MiB (7%)
    Language : English
    Service kind : Complete Main
    Default : No
    Forced : No
    
     
    • СКАЧАТЬ MAGNET
      (50,8 КБ, 155 Просмотров, Размер: 10,1 ГБ, Сидеры: 0, Личеры: 0, Скачали: 1) Золото
    • Загрузка...
    Последнее редактирование: 28 сен 2018