Бесстыдники / Shameless (UK) / Сезон: 11 / Серии: 1-14 (14) [WEB-DL 1080p]

Тема в разделе "Бесстыдники", создана пользователем Devzz, 28 май 2018.

  1. Devzz

    Devzz Administrator Команда форума

    Сообщения:
    147
    Бесстыдники / Shameless (UK)
    11 сезон

    Год выпуска: 2013
    Страна: Великобритания
    Жанр: драма, комедия
    Продолжительность: 14 х ~ 45 мин
    Озвучание: профессиональное многоголосое закадровое (FocusStudio)
    Субтитры
    : нет

    Режиссеры: Дэвид Трелфолл, Дирбла Уолш, Дэвид Эванс, Питер Лайдон

    В ролях: Дэвид Трелфолл, Герард Кернс, Ребекка Райан, Эллиотт Титтенсор, Джоди Лэтэм, Ребекка Эткинсон, Келли Холлис, Мэгги О`Нейлл, Марджори Йэтс, Линдси Даусон...

    Описание: Сериал о жизни многодетной семьи Галлахеров, оставленных сбежавшей мамашей, их папаши Фрэнка - профессионального тунеядца и алкоголика, их друзей и соседей по Чатсворт Эстейт в пригороде Манчестера. Новый сезон уже легендарной чёрной комедии.


    Релиз: [​IMG]

    ВНИМАНИЕ! Сериал полностью снят на не то чтобы очень цензурном языке и содержит сцены чего угодно.



    Качество: WEB-DL 1080p [Amazon]
    Формат: MKV
    Видео: 1920x1080, 25 fps, x264 ~8000-10000 kbps avg, 0.143 bit/pixel
    Аудио Rus: AC3, 48 kHz, 2 ch, 224 kbps
    Аудио Eng: AC3, 48 kHz, 2 ch, 224 kbps

    Код:
    General
    Unique ID : 231903035240464026502343700098882048254 (0xAE76E664DA4965A08973D258297990FE)
    Complete name : Shameless.s11e01.WEB-DL.1080p.FocusStudio.mkv
    Format : Matroska
    Format version : Version 4 / Version 2
    File size : 4.32 GiB
    Duration : 47 min 30 s
    Overall bit rate mode : Variable
    Overall bit rate : 13.0 Mb/s
    Movie name : Shameless 11x01 @ FocusStudio
    Encoded date : UTC 2018-05-28 13:40:51
    Writing application : mkvmerge v8.1.0 ('Psychedelic Postcard') 64bit
    Writing library : libebml v1.3.1 + libmatroska v1.4.2
    
    Video
    ID : 1
    Format : AVC
    Format/Info : Advanced Video Codec
    Format profile : High@L4
    Format settings : CABAC / 4 Ref Frames
    Format settings, CABAC : Yes
    Format settings, ReFrames : 4 frames
    Codec ID : V_MPEG4/ISO/AVC
    Duration : 47 min 30 s
    Bit rate mode : Variable
    Bit rate : 12.3 Mb/s
    Maximum bit rate : 15.0 Mb/s
    Width : 1 920 pixels
    Height : 1 080 pixels
    Display aspect ratio : 16:9
    Frame rate mode : Constant
    Frame rate : 25.000 FPS
    Color space : YUV
    Chroma subsampling : 4:2:0
    Bit depth : 8 bits
    Scan type : Progressive
    Bits/(Pixel*Frame) : 0.238
    Stream size : 4.09 GiB (95%)
    Writing library : x264 core 148 r2623 d5b2374
    Encoding settings : cabac=1 / ref=4 / deblock=1:-1:-1 / analyse=0x3:0x133 / me=umh / subme=9 / psy=1 / psy_rd=1.00:0.15 / mixed_ref=1 / me_range=24 / chroma_me=1 / trellis=2 / 8x8dct=1 / cqm=0 / deadzone=21,11 / fast_pskip=1 / chroma_qp_offset=-3 / threads=34 / lookahead_threads=5 / sliced_threads=0 / nr=150 / decimate=1 / interlaced=0 / bluray_compat=0 / constrained_intra=0 / bframes=8 / b_pyramid=2 / b_adapt=2 / b_bias=0 / direct=3 / weightb=1 / open_gop=0 / weightp=2 / keyint=125 / keyint_min=63 / scenecut=0 / intra_refresh=0 / rc_lookahead=125 / rc=crf / mbtree=1 / crf=18.0 / qcomp=0.60 / qpmin=0 / qpmax=69 / qpstep=4 / vbv_maxrate=15000 / vbv_bufsize=31250 / crf_max=0.0 / nal_hrd=vbr / filler=0 / ip_ratio=1.40 / aq=3:1.00
    Language : English
    Default : Yes
    Forced : No
    Color range : Limited
    Color primaries : BT.709
    Transfer characteristics : BT.709
    Matrix coefficients : BT.709
    
    Audio #1
    ID : 2
    Format : AC-3
    Format/Info : Audio Coding 3
    Codec ID : A_AC3
    Duration : 47 min 30 s
    Bit rate mode : Constant
    Bit rate : 224 kb/s
    Channel(s) : 2 channels
    Channel positions : Front: L R
    Sampling rate : 48.0 kHz
    Frame rate : 31.250 FPS (1536 SPF)
    Bit depth : 16 bits
    Compression mode : Lossy
    Stream size : 76.1 MiB (2%)
    Title : MVO FocusStudio
    Language : Russian
    Service kind : Complete Main
    Default : Yes
    Forced : No
    
    Audio #2
    ID : 3
    Format : AC-3
    Format/Info : Audio Coding 3
    Codec ID : A_AC3
    Duration : 47 min 30 s
    Bit rate mode : Constant
    Bit rate : 224 kb/s
    Channel(s) : 2 channels
    Channel positions : Front: L R
    Sampling rate : 48.0 kHz
    Frame rate : 31.250 FPS (1536 SPF)
    Bit depth : 16 bits
    Compression mode : Lossy
    Stream size : 76.1 MiB (2%)
    Language : English
    Service kind : Complete Main
    Default : No
    Forced : No
    
     
    • СКАЧАТЬ MAGNET
      (309,9 КБ, 178 Просмотров, Размер: 61,7 ГБ, Сидеры: 0, Личеры: 0, Скачали: 3) Золото
    • Загрузка...
    Последнее редактирование: 28 сен 2018
    anthraxxx и Andrey нравится это.
  2. Зомби
    Зомби
    спасибо,дождался пойду смотреть!
    29 май 2018
    Andrey нравится это.
  3. andrey140888@yandex.ru
    andrey140888@yandex.ru
    Великолепно!)
    29 май 2018
    Andrey нравится это.
  4. anthraxxx
    anthraxxx
    Спасибо,ждал...
    2 июн 2018
    Зомби нравится это.