В пустыне смерти / Into the Badlands / Сезон: 3 / Серии: 1-8 (16) [WEB-DL 1080p]

Тема в разделе "В пустыне смерти", создана пользователем Devzz, 16 май 2018.

  1. Devzz

    Devzz Administrator Команда форума

    Сообщения:
    147
    В пустыне смерти
    Into the Badlands

    3 сезон 1-8 серии

    Год выпуска: 2018
    Страна: США
    Жанр: драма, боевик, фантастика
    Продолжительность: 16 х ~ 40-50 мин
    Озвучание: профессиональное многоголосое закадровое (FocusStudio)
    Cубтитры
    : нет

    Режиссёр: Пако Кабесас, Тоа Фрейзер, Дэвид Добкин и другие

    В ролях: Дэниэл Ву, Орла Брэйди, Арамис Найт, Эмили Бичем, Элли Иоаннидес, Ник Фрост, Шерман Огастас, Сара Болгер, Оливер Старк, Мадлен Манток и другие


    Описание: История воина по имени Санни, сопровождающего мальчика в пути по бесплодным землям.


    Релиз: [​IMG]



    Качество: WEB-DL 1080p
    Формат: MKV
    Видео: 1920x1080, 23.976 fps, MPEG-4 AVC ~10000 kbps avg
    Аудио Rus: 48 kHz, AC3, 6 ch, 640 kbps
    Аудио Eng: 48 kHz, AC3, 6 ch, 640 kbps

    Код:
    General
    Unique ID : 196623968041872556511209773659150464669 (0x93EC6616AEBB142BA7DFE4E84901B69D)
    Complete name : Into.the.Badlands.S03E01.WEB-DL.1080p.FocusStudio.mkv
    Format : Matroska
    Format version : Version 4 / Version 2
    File size : 3.11 GiB
    Duration : 42 min 34 s
    Overall bit rate mode : Variable
    Overall bit rate : 10.5 Mb/s
    Movie name : Into the Badlands 3x01 @ FocusStudio
    Encoded date : UTC 2018-05-14 17:03:33
    Writing application : mkvmerge v8.1.0 ('Psychedelic Postcard') 64bit
    Writing library : libebml v1.3.1 + libmatroska v1.4.2
    
    Video
    ID : 1
    Format : AVC
    Format/Info : Advanced Video Codec
    Format profile : High@L4
    Format settings : CABAC / 4 Ref Frames
    Format settings, CABAC : Yes
    Format settings, ReFrames : 4 frames
    Codec ID : V_MPEG4/ISO/AVC
    Duration : 42 min 34 s
    Bit rate mode : Variable
    Bit rate : 8 984 kb/s
    Maximum bit rate : 15.0 Mb/s
    Width : 1 920 pixels
    Height : 1 080 pixels
    Display aspect ratio : 16:9
    Frame rate mode : Constant
    Frame rate : 23.976 (24000/1001) FPS
    Color space : YUV
    Chroma subsampling : 4:2:0
    Bit depth : 8 bits
    Scan type : Progressive
    Bits/(Pixel*Frame) : 0.181
    Stream size : 2.67 GiB (86%)
    Default : Yes
    Forced : No
    Color range : Limited
    Color primaries : BT.709
    Transfer characteristics : BT.709
    Matrix coefficients : BT.709
    
    Audio #1
    ID : 2
    Format : AC-3
    Format/Info : Audio Coding 3
    Codec ID : A_AC3
    Duration : 42 min 34 s
    Bit rate mode : Constant
    Bit rate : 640 kb/s
    Channel(s) : 6 channels
    Channel positions : Front: L C R, Side: L R, LFE
    Sampling rate : 48.0 kHz
    Frame rate : 31.250 FPS (1536 SPF)
    Bit depth : 16 bits
    Compression mode : Lossy
    Stream size : 195 MiB (6%)
    Title : MVO FocusStudio
    Language : Russian
    Service kind : Complete Main
    Default : Yes
    Forced : No
    
    Audio #2
    ID : 3
    Format : AC-3
    Format/Info : Audio Coding 3
    Codec ID : A_AC3
    Duration : 42 min 34 s
    Bit rate mode : Constant
    Bit rate : 640 kb/s
    Channel(s) : 6 channels
    Channel positions : Front: L C R, Side: L R, LFE
    Sampling rate : 48.0 kHz
    Frame rate : 31.250 FPS (1536 SPF)
    Bit depth : 16 bits
    Compression mode : Lossy
    Stream size : 195 MiB (6%)
    Language : English
    Service kind : Complete Main
    Default : No
    Forced : No
    
     
    • СКАЧАТЬ MAGNET
      (138,8 КБ, 61 Просмотров, Размер: 27,6 ГБ, Сидеры: 1, Личеры: 0, Скачали: 0) Золото
    • Загрузка...
    Последнее редактирование: 28 сен 2018