Мир Дикого Запада / Westworld / Сезон: 1 / Серии: 1-2 (10) [WEB-DL 1080p]

Тема в разделе "Мир Дикого Запада", создана пользователем Devzz, 12 май 2018.

  1. Devzz

    Devzz Administrator Команда форума

    Сообщения:
    147
    Мир Дикого Запада
    Westworld
    1 сезон 1-2 серии

    Год выпуска: 2018
    Страна: США
    Жанр: драма, фантастика, триллер
    Продолжительность: 10 х ~ 46-65 мин
    Озвучание: профессиональное многоголосое закадровое, без цензуры (FocusStudio)
    Субтитры
    : нет

    Режиссёры: Ричард Джей Льюис и другие

    В ролях: Эван Рэйчэл Вуд, Тэнди Ньютон, Джэффри Райт, Джэймс Марсдэн, Тэсса Томпсон, Фарэс Фарэс, Люк Хэмсворт, Луи Хэртэм, Саймон Квотерман, Талула Райли, Родриго Санторо , Густаф Скарсгорд , Эд Харрис и другие

    Описание: В футуристическом парке развлечений «Мир Дикого Запада» специально сконструированные андроиды выполняют любые прихоти посетителей, чтобы те чувствовали безнаказанность и полную свободу действий. Если робота убили — не беда, техники его починят, сотрут память и снова поставят в строй, навстречу новому дню и новым людским прихотям. Но оказывается, что далеко не все роботы теряют воспоминания.


    Релиз: [​IMG]



    Качество: WEB-DL 1080p
    Формат: MKV
    Видео: 1920x1080 (16:9), 23.976 fps, MPEG-4 AVC ~10500 kbps
    Аудио Rus: 48 kHz, AC3, 6 ch, 640 kbps
    Аудио Eng: 48 kHz, AC3, 6 ch, 640 kbps

    Код:
    General
    Unique ID : 192988161428970000467283510031577238482 (0x91302AFB8C79FE63B583ADBBA7D7CBD2)
    Complete name : Westworld.S02E01.WEB-DL.1080p.FocusStudio.mkv
    Format : Matroska
    Format version : Version 4 / Version 2
    File size : 6.03 GiB
    Duration : 1 h 14 min
    Overall bit rate mode : Variable
    Overall bit rate : 11.6 Mb/s
    Movie name : Westworld 2x01 @ FocusStudio
    Encoded date : UTC 2018-05-12 08:59:55
    Writing application : mkvmerge v8.1.0 ('Psychedelic Postcard') 64bit
    Writing library : libebml v1.3.1 + libmatroska v1.4.2
    
    Video
    ID : 1
    Format : AVC
    Format/Info : Advanced Video Codec
    Format profile : High@L4
    Format settings : CABAC / 4 Ref Frames
    Format settings, CABAC : Yes
    Format settings, ReFrames : 4 frames
    Codec ID : V_MPEG4/ISO/AVC
    Duration : 1 h 14 min
    Bit rate mode : Variable
    Bit rate : 10.0 Mb/s
    Maximum bit rate : 15.0 Mb/s
    Width : 1 920 pixels
    Height : 1 080 pixels
    Display aspect ratio : 16:9
    Frame rate mode : Constant
    Frame rate : 23.976 (24000/1001) FPS
    Color space : YUV
    Chroma subsampling : 4:2:0
    Bit depth : 8 bits
    Scan type : Progressive
    Bits/(Pixel*Frame) : 0.202
    Stream size : 5.24 GiB (87%)
    Default : Yes
    Forced : No
    Color range : Limited
    Color primaries : BT.709
    Transfer characteristics : BT.709
    Matrix coefficients : BT.709
    
    Audio #1
    ID : 2
    Format : AC-3
    Format/Info : Audio Coding 3
    Codec ID : A_AC3
    Duration : 1 h 14 min
    Bit rate mode : Constant
    Bit rate : 640 kb/s
    Channel(s) : 6 channels
    Channel positions : Front: L C R, Side: L R, LFE
    Sampling rate : 48.0 kHz
    Frame rate : 31.250 FPS (1536 SPF)
    Bit depth : 16 bits
    Compression mode : Lossy
    Stream size : 342 MiB (6%)
    Title : MVO FocusStudio
    Language : Russian
    Service kind : Complete Main
    Default : Yes
    Forced : No
    
    Audio #2
    ID : 3
    Format : AC-3
    Format/Info : Audio Coding 3
    Codec ID : A_AC3
    Duration : 1 h 14 min
    Bit rate mode : Constant
    Bit rate : 640 kb/s
    Channel(s) : 6 channels
    Channel positions : Front: L C R, Side: L R, LFE
    Sampling rate : 48.0 kHz
    Frame rate : 31.250 FPS (1536 SPF)
    Bit depth : 16 bits
    Compression mode : Lossy
    Stream size : 342 MiB (6%)
    Language : English
    Service kind : Complete Main
    Default : No
    Forced : No
    
    
     
    • СКАЧАТЬ MAGNET
      (54,5 КБ, 124 Просмотров, Размер: 10,8 ГБ, Сидеры: 1, Личеры: 0, Скачали: 1) Золото
    • Загрузка...
    Последнее редактирование: 28 сен 2018