Видоизменённый углерод / Altered Carbon / Сезон: 1 / Серии: 1-10 (10) [WEBRip 720p]

Тема в разделе "Видоизменённый углерод", создана пользователем Devzz, 20 фев 2018.

  1. Devzz

    Devzz Administrator Команда форума

    Сообщения:
    163
    Видоизменённый углерод / Altered Carbon
    1 сезон

    Год выпуска: 2018
    Страна: США
    Жанр: фантастика, триллер, драма
    Продолжительность: 10 х ~ 44-65 мин
    Озвучание: профессиональное многоголосое закадровое, без цензуры (FocusStudio)
    Субтитры
    : нет

    Режиссёры: Ута Бризвитц, Алекс Грейвз, Питер Хор и другие

    В ролях: Юэль Киннаман, Джеймс Пьюрфой, Марта Игареда, Крис Коннер, Дичен Лакмэн, Ато Эссонда, Кристин Леман, Треу Трэн, Рене Голдсберри, Хиро Канагава и другие

    Описание: Земля, XXVII век. Мир, в котором появилась возможность «сгружать» человеческое сознание и личность из одного тела в другое. Идеальный мир и для преступников, и для полицейских, и для армии, но вряд ли идеальный для бывшего военного спецназовца и бывшего повстанца Такеси Ковача, которого миллиардер Бэнкрофт нанял для расследования гибели одного из своих тел. Внешне — явное самоубийство, но Бэнкрофт считает себя неспособным на такой поступок, а воспоминания о последних минутах жизни уничтожены метким выстрелом в запоминающее устройство.


    Релиз: [​IMG]



    Качество: WEBRip 720p
    Формат: MKV
    Видео: 1280x640, 23.976 fps, MPEG-4 AVC ~5000 kbps
    Аудио Rus: 48 kHz, AC3, 6 ch, 448 kbps
    Аудио Eng: 48 kHz, AC3, 6 ch, 448 kbps

    Код:
    General
    Unique ID : 216783155518068938021977650079186331523 (0xA316EAC4C746869190C8A39699FCA783)
    Complete name : Altered.Carbon.S01E01.WEBRip.720p.FocusStudio.mkv
    Format : Matroska
    Format version : Version 4 / Version 2
    File size : 2.51 GiB
    Duration : 58 min 53 s
    Overall bit rate : 6 093 kb/s
    Movie name : Altered Carbon 1x01 @ FocusStudio
    Encoded date : UTC 2018-02-19 11:18:24
    Writing application : mkvmerge v8.1.0 ('Psychedelic Postcard') 64bit
    Writing library : libebml v1.3.1 + libmatroska v1.4.2
    
    Video
    ID : 1
    Format : AVC
    Format/Info : Advanced Video Codec
    Format profile : High@L4.1
    Format settings : CABAC / 10 Ref Frames
    Format settings, CABAC : Yes
    Format settings, ReFrames : 10 frames
    Codec ID : V_MPEG4/ISO/AVC
    Duration : 58 min 53 s
    Bit rate : 5 075 kb/s
    Width : 1 280 pixels
    Height : 640 pixels
    Display aspect ratio : 2.000
    Frame rate mode : Constant
    Frame rate : 23.976 (24000/1001) FPS
    Color space : YUV
    Chroma subsampling : 4:2:0
    Bit depth : 8 bits
    Scan type : Progressive
    Bits/(Pixel*Frame) : 0.258
    Stream size : 2.09 GiB (83%)
    Writing library : x264 core 152 r2851kMod ba24899
    Encoding settings : cabac=1 / ref=10 / deblock=1:-3:-3 / analyse=0x3:0x133 / me=umh / subme=10 / psy=1 / fade_compensate=0.00 / psy_rd=1.00:0.00 / mixed_ref=1 / me_range=48 / chroma_me=1 / trellis=2 / 8x8dct=1 / cqm=0 / deadzone=21,11 / fast_pskip=0 / chroma_qp_offset=-2 / threads=12 / lookahead_threads=2 / sliced_threads=0 / nr=0 / decimate=0 / interlaced=0 / bluray_compat=0 / constrained_intra=0 / bframes=8 / b_pyramid=2 / b_adapt=2 / b_bias=0 / direct=3 / weightb=1 / open_gop=0 / weightp=2 / keyint=250 / keyint_min=23 / scenecut=40 / intra_refresh=0 / rc=crf / mbtree=0 / crf=16.0000 / qcomp=0.60 / qpmin=0 / qpmax=69 / qpstep=4 / ip_ratio=1.30 / pb_ratio=1.20 / aq=3:0.80
    Language : English
    Default : Yes
    Forced : No
    
    Audio #1
    ID : 2
    Format : AC-3
    Format/Info : Audio Coding 3
    Codec ID : A_AC3
    Duration : 58 min 53 s
    Bit rate mode : Constant
    Bit rate : 448 kb/s
    Channel(s) : 6 channels
    Channel positions : Front: L C R, Side: L R, LFE
    Sampling rate : 48.0 kHz
    Frame rate : 31.250 FPS (1536 SPF)
    Bit depth : 16 bits
    Compression mode : Lossy
    Stream size : 189 MiB (7%)
    Title : MVO FocusStudio
    Language : Russian
    Service kind : Complete Main
    Default : Yes
    Forced : No
    
    Audio #2
    ID : 3
    Format : AC-3
    Format/Info : Audio Coding 3
    Codec ID : A_AC3
    Duration : 58 min 53 s
    Bit rate mode : Constant
    Bit rate : 448 kb/s
    Channel(s) : 6 channels
    Channel positions : Front: L C R, Side: L R, LFE
    Sampling rate : 48.0 kHz
    Frame rate : 31.250 FPS (1536 SPF)
    Bit depth : 16 bits
    Compression mode : Lossy
    Stream size : 189 MiB (7%)
    Language : English
    Service kind : Complete Main
    Default : No
    Forced : No
    
     
    • СКАЧАТЬ MAGNET
      (114,8 КБ, 270 Просмотров, Размер: 22,8 ГБ, Сидеры: 0, Личеры: 0, Скачали: 1) Золото
    • Загрузка...
    Последнее редактирование: 28 сен 2018
  2. Jeulla
    Jeulla
    В 5 серии с 4:27 по 5:27 нет озвучки женского персонажа.
    6 июн 2018