Бельвью / Bellevue / Сезон: 1 / Серии: 1-8 (8) [WEB-DL 720p]

Тема в разделе "Бельвью", создана пользователем Devzz, 13 фев 2018.

  1. Devzz

    Devzz Administrator Команда форума

    Сообщения:
    154
    Бельвью / Bellevue
    1 сезон

    Год выпуска: 2017
    Страна: Канада
    Жанр: драма, детектив, триллер
    Продолжительность: 8 х ~ 46-52 мин
    Озвучание: профессиональное многоголосое закадровое, без цензуры (FocusStudio)
    Субтитры
    : нет

    Режиссёры: Эдриэнн Митчелл, Эйприл Маллен, Ким Нгуйен и другие

    В ролях: Анна Пэкуин, Шон Дойл, Билли Маклеллан, Шэрон Тейлор, Жанин Терио, Аллен Лич, Мэдисон Фергюсон, Эмбер Гольдфарб, Патрик Лаббе, Сэди О’Нил и другие

    Описание: Энни Райдер — детектив небольшого городка, который нередко сотрясают различные преступления. Девушка находит интересные связи с делом о похищении подростка-трансгендера, несмотря на то, что оно уже не первый раз заходит в тупик. Вскоре она начинает догадываться о том, что именно происходит в городе. И понимает, что похищенного могут ждать самые печальные последствия…


    Релиз: [​IMG]



    Качество: WEB-DL 720p
    Формат: MKV
    Видео: 1280x720 (16:9), 23.976 fps, MPEG-4 AVC ~4000 kbps
    Аудио Rus: 48 kHz, AC3, 6 ch, 384 kbps
    Аудио Eng: 48 kHz, AC3, 6 ch, 384 kbps

    Код:
    General
    Unique ID : 184987150240687111532567083200036946298 (0x8B2B3AACB0A2869A9D149A69EA7B417A)
    Complete name : Bellevue.S01E01.WEB-DL.720p.FocusStudio.mkv
    Format : Matroska
    Format version : Version 4 / Version 2
    File size : 1.47 GiB
    Duration : 43 min 55 s
    Overall bit rate : 4 800 kb/s
    Movie name : Bellevue 1x01 @ FocusStudio
    Encoded date : UTC 2018-02-12 15:06:37
    Writing application : mkvmerge v8.1.0 ('Psychedelic Postcard') 64bit
    Writing library : libebml v1.3.1 + libmatroska v1.4.2
    
    Video
    ID : 1
    Format : AVC
    Format/Info : Advanced Video Codec
    Format profile : High@L3.1
    Format settings : 2 Ref Frames
    Format settings, CABAC : No
    Format settings, ReFrames : 2 frames
    Codec ID : V_MPEG4/ISO/AVC
    Duration : 43 min 55 s
    Bit rate : 3 937 kb/s
    Width : 1 280 pixels
    Height : 720 pixels
    Display aspect ratio : 16:9
    Frame rate mode : Constant
    Frame rate : 23.976 FPS
    Color space : YUV
    Chroma subsampling : 4:2:0
    Bit depth : 8 bits
    Scan type : Progressive
    Bits/(Pixel*Frame) : 0.178
    Stream size : 1.21 GiB (82%)
    Language : English
    Default : Yes
    Forced : No
    Color range : Limited
    Color primaries : BT.709
    Transfer characteristics : BT.709
    Matrix coefficients : BT.709
    
    Audio #1
    ID : 2
    Format : AC-3
    Format/Info : Audio Coding 3
    Codec ID : A_AC3
    Duration : 43 min 55 s
    Bit rate mode : Constant
    Bit rate : 384 kb/s
    Channel(s) : 6 channels
    Channel positions : Front: L C R, Side: L R, LFE
    Sampling rate : 48.0 kHz
    Frame rate : 31.250 FPS (1536 SPF)
    Bit depth : 16 bits
    Compression mode : Lossy
    Stream size : 121 MiB (8%)
    Language : Russian
    Service kind : Complete Main
    Default : Yes
    Forced : No
    
    Audio #2
    ID : 3
    Format : AC-3
    Format/Info : Audio Coding 3
    Codec ID : A_AC3
    Duration : 43 min 55 s
    Bit rate mode : Constant
    Bit rate : 384 kb/s
    Channel(s) : 6 channels
    Channel positions : Front: L C R, Side: L R, LFE
    Sampling rate : 48.0 kHz
    Frame rate : 31.250 FPS (1536 SPF)
    Bit depth : 16 bits
    Compression mode : Lossy
    Stream size : 121 MiB (8%)
    Language : English
    Service kind : Complete Main
    Default : No
    Forced : No
    
     
    • СКАЧАТЬ MAGNET
      (60,4 КБ, 268 Просмотров, Размер: 11,9 ГБ, Сидеры: 1, Личеры: 0, Скачали: 3) Золото
    • Загрузка...
    Последнее редактирование: 28 сен 2018
    Dreik нравится это.