Ординатор / The Resident / Сезон: 1 / Серии: 1-7 (13) [WEB-DL 1080p]

Тема в разделе "Ординатор", создана пользователем Devzz, 28 янв 2018.

  1. Devzz

    Devzz Administrator Команда форума

    Сообщения:
    147
    Ординатор / The Resident
    1 сезон 1-7 cерии

    Год выпуска: 2018
    Страна: США
    Жанр: драма, медицина
    Продолжительность: 13 х ~ 40-50 мин
    Озвучание: профессиональное многоголосое закадровое (FocusStudio)
    Cубтитры
    : нет

    Режиссёр: Филлип Нойс, Роб Корн, Дэвид Крэбтри и другие

    В ролях: Мэтт Зукри, Эмили ВанКэмп, Маниш Дайал, Шонетт Рене Уилсон, Брюс Гринвуд, Моран Атиас, Меррин Данги, Мелина Канакаридис, Тассо Фельдман, Джессика Мизел и другие


    Описание: Сериал рассказывает о молодом враче с идеалистическими взглядами на жизнь, который начинает работать под началом блестящего и более опытного врача. Со временем главный герой понимает, что не всё так просто, и в его работе есть сотни нюансов, на которые невозможно закрыть глаза.



    Релиз: [​IMG]


    Качество: WEB-DL 1080p
    Формат: MKV
    Видео: 1920x1080, 23.976 fps, MPEG-4 AVC ~13000 kbps avg, 0.26 bit/pixel
    Аудио Rus: 48 kHz, AC3, 6 ch, 640 kbps
    Аудио Eng: 48 kHz, AC3, 6 ch, 640 kbps

    Код:
    General
    Unique ID : 179966093540869960648925806333461359393 (0x876435775B184A9482B78DD936E56B21)
    Complete name : The.Resident.S01E01.WEB-DL.1080p.FocusStudio.mkv
    Format : Matroska
    Format version : Version 4 / Version 2
    File size : 4.51 GiB
    Duration : 44 min 50 s
    Overall bit rate mode : Variable
    Overall bit rate : 14.4 Mb/s
    Movie name : The Resident 1x01 @ FocusStudio
    Encoded date : UTC 2018-01-28 14:41:34
    Writing application : mkvmerge v8.1.0 ('Psychedelic Postcard') 64bit
    Writing library : libebml v1.3.1 + libmatroska v1.4.2
    
    Video
    ID : 1
    Format : AVC
    Format/Info : Advanced Video Codec
    Format profile : High@L4
    Format settings : CABAC / 4 Ref Frames
    Format settings, CABAC : Yes
    Format settings, ReFrames : 4 frames
    Codec ID : V_MPEG4/ISO/AVC
    Duration : 44 min 50 s
    Bit rate mode : Variable
    Bit rate : 12.8 Mb/s
    Maximum bit rate : 15.0 Mb/s
    Width : 1 920 pixels
    Height : 1 080 pixels
    Display aspect ratio : 16:9
    Frame rate mode : Constant
    Frame rate : 23.976 (24000/1001) FPS
    Color space : YUV
    Chroma subsampling : 4:2:0
    Bit depth : 8 bits
    Scan type : Progressive
    Bits/(Pixel*Frame) : 0.258
    Stream size : 4.02 GiB (89%)
    Default : Yes
    Forced : No
    Color range : Limited
    Color primaries : BT.709
    Transfer characteristics : BT.709
    Matrix coefficients : BT.709
    
    Audio #1
    ID : 2
    Format : AC-3
    Format/Info : Audio Coding 3
    Codec ID : A_AC3
    Duration : 44 min 50 s
    Bit rate mode : Constant
    Bit rate : 640 kb/s
    Channel(s) : 6 channels
    Channel positions : Front: L C R, Side: L R, LFE
    Sampling rate : 48.0 kHz
    Frame rate : 31.250 FPS (1536 SPF)
    Bit depth : 16 bits
    Compression mode : Lossy
    Stream size : 205 MiB (4%)
    Title : MVO FocusStudio
    Language : Russian
    Service kind : Complete Main
    Default : Yes
    Forced : No
    
    Audio #2
    ID : 3
    Format : AC-3
    Format/Info : Audio Coding 3
    Codec ID : A_AC3
    Duration : 44 min 50 s
    Bit rate mode : Constant
    Bit rate : 640 kb/s
    Channel(s) : 6 channels
    Channel positions : Front: L C R, Side: L R, LFE
    Sampling rate : 48.0 kHz
    Frame rate : 31.250 FPS (1536 SPF)
    Bit depth : 16 bits
    Compression mode : Lossy
    Stream size : 205 MiB (4%)
    Language : English
    Service kind : Complete Main
    Default : No
    Forced : No
    
     
    • СКАЧАТЬ MAGNET
      (151,7 КБ, 176 Просмотров, Размер: 30,2 ГБ, Сидеры: 1, Личеры: 0, Скачали: 2) Золото
    • Загрузка...
    Последнее редактирование: 28 сен 2018
    BelkaLily, skofield и killer99xxx нравится это.
  2. BelkaLily
    BelkaLily
    Отличный сериал, жду новых серий
    6 фев 2018
  3. sol7777
    sol7777
    отличная озвучка. лучший перевод из имеющихся. спасибо. ждем остальные серии
    10 май 2018
  4. sol7777
    sol7777
    Планируется ли закончить этот сериал? Очень ждем
    13 июл 2018
    1. Devzz
      Devzz
      Актеры были в отпуске, на этой неделе приедут и начинаем добивать и 2 сезон следом.
      16 июл 2018
  5. TFoc
    14 авг 2018
    1. Devzz
      Devzz
      13 серий есть, 14 скоро запишут
      14 авг 2018
      1. sol7777
        sol7777
        :( а где? в ссылке по-прежнему только 7 серий
        25 авг 2018