Секретные Материалы / X-Files / Сезон: 11 / Серии: 1-6 (10) [WEB-DL 1080p]

Тема в разделе "Секретные Материалы", создана пользователем Devzz, 6 янв 2018.

  1. Devzz

    Devzz Administrator Команда форума

    Сообщения:
    147
    Секретные Материалы / X-Files
    11 сезон 1-6 cерии

    Год выпуска: 2017
    Страна: США
    Жанр: драма, фантастика
    Продолжительность: 10 х ~ 40-50 мин
    Озвучание: профессиональное многоголосое закадровое (FocusStudio)
    Cубтитры
    : нет

    Режиссёр: Крис Картер и другие

    В ролях: Дэвид Духовны, Джиллиан Андерсон, Митч Пилледжи, Уильям Б. Дэвис, Гардинер Миллар, Шейла Ларкен, Аннабет Гиш, Кристин Уиллз, Том Брэйдвуд, Алекс Дьякун и другие


    Описание: Специальные агенты ФБР, Фокс Малдер и Дана Скалли, снова работают вместе, чтобы расследовать странные и необъяснимые дела, связанные с паранормальными явлениями.


    Релиз: [​IMG]


    Качество: WEB-DL
    Формат: MKV
    Видео: 1920x1080, 23.976 fps, MPEG-4 AVC ~12000 kbps avg, 0.24 bit/pixel
    Аудио Rus: 48 kHz, AC3, 6 ch, 640 kbps
    Аудио Eng: 48 kHz, AC3, 6 ch, 640 kbps

    Код:
    General
    Unique ID                   : 234067977807917806575729337322046729448 (0xB017DA4DB579F07096D51D5B5463ACE8)
    Complete name               : The.X-Files.S11E01.WEB-DL.1080p.FocusStudio.mkv
    Format                      : Matroska
    Format version              : Version 4 / Version 2
    File size                   : 3.98 GiB
    Duration                    : 42 min 56 s
    Overall bit rate mode       : Variable
    Overall bit rate            : 13.3 Mb/s
    Movie name                  : X-Files 11x01 @ FocusStudio
    Encoded date                : UTC 2018-01-06 16:01:42
    Writing application         : mkvmerge v8.1.0 ('Psychedelic Postcard') 64bit
    Writing library             : libebml v1.3.1 + libmatroska v1.4.2
    
    Video
    ID                          : 1
    Format                      : AVC
    Format/Info                 : Advanced Video Codec
    Format profile              : High@L4
    Format settings             : CABAC / 4 Ref Frames
    Format settings, CABAC      : Yes
    Format settings, ReFrames   : 4 frames
    Codec ID                    : V_MPEG4/ISO/AVC
    Duration                    : 42 min 56 s
    Bit rate mode               : Variable
    Bit rate                    : 11.7 Mb/s
    Maximum bit rate            : 15.0 Mb/s
    Width                       : 1 920 pixels
    Height                      : 1 080 pixels
    Display aspect ratio        : 16:9
    Frame rate mode             : Constant
    Frame rate                  : 23.976 (24000/1001) FPS
    Color space                 : YUV
    Chroma subsampling          : 4:2:0
    Bit depth                   : 8 bits
    Scan type                   : Progressive
    Bits/(Pixel*Frame)          : 0.236
    Stream size                 : 3.52 GiB (88%)
    Default                     : Yes
    Forced                      : No
    Color range                 : Limited
    Color primaries             : BT.709
    Transfer characteristics    : BT.709
    Matrix coefficients         : BT.709
    
    Audio #1
    ID                          : 2
    Format                      : AC-3
    Format/Info                 : Audio Coding 3
    Codec ID                    : A_AC3
    Duration                    : 42 min 56 s
    Bit rate mode               : Constant
    Bit rate                    : 640 kb/s
    Channel(s)                  : 6 channels
    Channel positions           : Front: L C R, Side: L R, LFE
    Sampling rate               : 48.0 kHz
    Frame rate                  : 31.250 FPS (1536 SPF)
    Bit depth                   : 16 bits
    Compression mode            : Lossy
    Stream size                 : 197 MiB (5%)
    Title                       : MVO FocusStudio
    Language                    : Russian
    Service kind                : Complete Main
    Default                     : Yes
    Forced                      : No
    
    Audio #2
    ID                          : 3
    Format                      : AC-3
    Format/Info                 : Audio Coding 3
    Codec ID                    : A_AC3
    Duration                    : 42 min 56 s
    Bit rate mode               : Constant
    Bit rate                    : 640 kb/s
    Channel(s)                  : 6 channels
    Channel positions           : Front: L C R, Side: L R, LFE
    Sampling rate               : 48.0 kHz
    Frame rate                  : 31.250 FPS (1536 SPF)
    Bit depth                   : 16 bits
    Compression mode            : Lossy
    Stream size                 : 197 MiB (5%)
    Language                    : English
    Service kind                : Complete Main
    Default                     : No
    Forced                      : No
    
    
    
     
    • СКАЧАТЬ MAGNET
      (115 КБ, 188 Просмотров, Размер: 22,9 ГБ, Сидеры: 1, Личеры: 0, Скачали: 0) Золото
    • Загрузка...
    Последнее редактирование: 28 сен 2018
    killer99xxx, lipovan и Dreik нравится это.