Безбожники / Godless / Сезон: 1 / Серии: 1-7 (7) [WEBRip 1080p]

Тема в разделе "Безбожники", создана пользователем Devzz, 28 дек 2017.

  1. Devzz

    Devzz Administrator Команда форума

    Сообщения:
    147
    Безбожники / Godless
    1 сезон


    Год выпуска: 2017
    Страна: США
    Жанр: драма, вестерн
    Продолжительность: 7 х ~ 45-80 мин
    Озвучание: профессиональное многоголосое закадровое (FocusStudio)
    Субтитры
    : нет

    Режиссеры: Скотт Фрэнк

    В ролях: Сэмюэл Марти, Люк Робертсон, Рио Александр, Джолин Бауман, Джереми Бобб, Томас Сэнгстер, Кэйли Картер, Дональд Серроне, Ким Коутс, Джефф Дэниелс и др.

    Описание: Действие происходит в 1884 году. Зловещий бандит, Фрэнк Гриффин, терроризирует дикий Запад в поисках своего приемного сына и одновременно бывшего партнера, Роя Гуда, которого внезапно заела совесть и он свалил от Фрэнка с награбленным с последнего налета. Поиски приводят Фрэнка к тихому городку Ла Белль, в котором, по странным обстоятельствам, обитают одни женщины.



    Релиз: [​IMG]



    Качество: WEBRip
    Формат: MKV
    Видео: 1920x800, 23.976 fps, x264 ~8000kbps avg, 0.200 bit/pixel
    Аудио Rus: 48 kHz, AC3, 6 ch, 384 kbps
    Аудио Eng: 48 kHz, AC3, 6 ch, 384 kbps

    Код:
    General
    Unique ID                   : 205054166688335762855605154778269654615 (0x9A43FEF8D98037F69C580A83EF209E57)
    Complete name               : Godless.2017.S01E04.WEBRip.1080p.FocusStudio.mkv
    Format                      : Matroska
    Format version              : Version 4 / Version 2
    File size                   : 4.05 GiB
    Duration                    : 1 h 8 min
    Overall bit rate            : 8 473 kb/s
    Movie name                  : Godless 1x04 @ FocusStudio
    Encoded date                : UTC 2017-12-28 14:22:17
    Writing application         : mkvmerge v8.1.0 ('Psychedelic Postcard') 64bit
    Writing library             : libebml v1.3.1 + libmatroska v1.4.2
    
    Video
    ID                          : 1
    Format                      : AVC
    Format/Info                 : Advanced Video Codec
    Format profile              : High@L4.1
    Format settings             : CABAC / 5 Ref Frames
    Format settings, CABAC      : Yes
    Format settings, ReFrames   : 5 frames
    Codec ID                    : V_MPEG4/ISO/AVC
    Duration                    : 1 h 8 min
    Bit rate                    : 7 537 kb/s
    Width                       : 1 920 pixels
    Height                      : 800 pixels
    Display aspect ratio        : 2.40:1
    Frame rate mode             : Constant
    Frame rate                  : 23.976 (24000/1001) FPS
    Color space                 : YUV
    Chroma subsampling          : 4:2:0
    Bit depth                   : 8 bits
    Scan type                   : Progressive
    Bits/(Pixel*Frame)          : 0.205
    Stream size                 : 3.60 GiB (89%)
    Writing library             : x264 core 152 r2851kMod ba24899
    Encoding settings           : cabac=1 / ref=5 / deblock=1:-3:-3 / analyse=0x3:0x133 / me=umh / subme=10 / psy=1 / fade_compensate=0.00 / psy_rd=1.00:0.00 / mixed_ref=1 / me_range=48 / chroma_me=1 / trellis=2 / 8x8dct=1 / cqm=0 / deadzone=21,11 / fast_pskip=1 / chroma_qp_offset=-2 / threads=12 / lookahead_threads=2 / sliced_threads=0 / nr=0 / decimate=1 / interlaced=0 / bluray_compat=0 / constrained_intra=0 / bframes=8 / b_pyramid=2 / b_adapt=2 / b_bias=0 / direct=3 / weightb=1 / open_gop=0 / weightp=2 / keyint=250 / keyint_min=23 / scenecut=40 / intra_refresh=0 / rc=crf / mbtree=0 / crf=17.0000 / qcomp=0.60 / qpmin=0 / qpmax=69 / qpstep=4 / ip_ratio=1.30 / pb_ratio=1.20 / aq=3:0.80
    Language                    : English
    Default                     : Yes
    Forced                      : No
    
    Audio #1
    ID                          : 2
    Format                      : AC-3
    Format/Info                 : Audio Coding 3
    Codec ID                    : A_AC3
    Duration                    : 1 h 8 min
    Bit rate mode               : Constant
    Bit rate                    : 384 kb/s
    Channel(s)                  : 6 channels
    Channel positions           : Front: L C R, Side: L R, LFE
    Sampling rate               : 48.0 kHz
    Frame rate                  : 31.250 FPS (1536 SPF)
    Bit depth                   : 16 bits
    Compression mode            : Lossy
    Stream size                 : 188 MiB (5%)
    Title                       : MVO FocusStudio
    Language                    : Russian
    Service kind                : Complete Main
    Default                     : Yes
    Forced                      : No
    
    Audio #2
    ID                          : 3
    Format                      : AC-3
    Format/Info                 : Audio Coding 3
    Codec ID                    : A_AC3
    Duration                    : 1 h 8 min
    Bit rate mode               : Constant
    Bit rate                    : 384 kb/s
    Channel(s)                  : 6 channels
    Channel positions           : Front: L C R, Side: L R, LFE
    Sampling rate               : 48.0 kHz
    Frame rate                  : 31.250 FPS (1536 SPF)
    Bit depth                   : 16 bits
    Compression mode            : Lossy
    Stream size                 : 188 MiB (5%)
    Language                    : English
    Service kind                : Complete Main
    Default                     : No
    Forced                      : No
    
     
    • СКАЧАТЬ MAGNET
      (124,6 КБ, 208 Просмотров, Размер: 24,8 ГБ, Сидеры: 1, Личеры: 0, Скачали: 4) Золото
    • Загрузка...
    Последнее редактирование: 28 сен 2018
    Poster62, IncognitoI и Dreik нравится это.