Гавайи 5-0 / Hawaii Five-0 / Сезон: 8 / Серии: 1-7 (25) [WEB-DL 1080p]

Тема в разделе "Гавайи 5-0", создана пользователем Devzz, 5 окт 2017.

  1. Devzz

    Devzz Administrator Команда форума

    Сообщения:
    147
    Гавайи 5-0 / Hawaii Five-0
    8 сезон 1-7 серии

    Год выпуска: 2017
    Страна: США
    Жанр: драма, комедия, боевик
    Продолжительность: 25 х ~ 45 мин
    Озвучание: профессиональное многоголосое закадровое (FocusStudio)
    Субтитры
    : нет

    Режиссеры: Брэд Тернер

    В ролях: Алекс О`Лахлан, Скотт Каан, Дэниэл Дэй Ким, Грейс Пак и др.

    Описание: Коммандер Стив МакГарретт, бывший морской офицер с массой наград, а теперь полицейский, возвращается в Оаху расследовать убийство отца. Он остается на острове, после того, как губернатор штата Гавайи убедил его возглавить новую команду. Команда будет действовать по его правилам, при поддержке губернатора, без бюрократических проволочек, и с полным иммунитетом, все это — чтобы поймать самую крупную «дичь» в городе.


    Релиз: [​IMG]



    Качество: WEB-DL 1080p [Amazon]
    Формат: MKV
    Видео: 1920x1080, 23.976 fps, x264 ~11000-12000kbps avg, 0.267 bit/pixel
    Аудио Rus: 48 kHz, AC3, 6 ch, 640 kbps
    Аудио Eng: 48 kHz, AC3, 6 ch, 640 kbps

    Код:
    General
    Unique ID                                : 242729477601086624196478955277476644244 (0xB69BFF36C9973E89AE36DC0855DB4594)
    Complete name                            : Hawaii.Five-0.S08E01.WEB-DL.1080p.FocusStudio.mkv
    Format                                   : Matroska
    Format version                           : Version 4 / Version 2
    File size                                : 3.80 GiB
    Duration                                 : 41mn 35s
    Overall bit rate mode                    : Variable
    Overall bit rate                         : 13.1 Mbps
    Movie name                               : Hawaii Five-0 8x01 @ FocusStudio
    Encoded date                             : UTC 2017-10-05 15:42:15
    Writing application                      : mkvmerge v8.1.0 ('Psychedelic Postcard') 64bit
    Writing library                          : libebml v1.3.1 + libmatroska v1.4.2
    
    Video
    ID                                       : 1
    Format                                   : AVC
    Format/Info                              : Advanced Video Codec
    Format profile                           : High@L4.0
    Format settings, CABAC                   : Yes
    Format settings, ReFrames                : 4 frames
    Codec ID                                 : V_MPEG4/ISO/AVC
    Duration                                 : 41mn 35s
    Bit rate mode                            : Variable
    Bit rate                                 : 11.6 Mbps
    Maximum bit rate                         : 15.0 Mbps
    Width                                    : 1 920 pixels
    Height                                   : 1 080 pixels
    Display aspect ratio                     : 16:9
    Frame rate mode                          : Constant
    Frame rate                               : 23.976 fps
    Color space                              : YUV
    Chroma subsampling                       : 4:2:0
    Bit depth                                : 8 bits
    Scan type                                : Progressive
    Bits/(Pixel*Frame)                       : 0.232
    Stream size                              : 3.36 GiB (88%)
    Default                                  : Yes
    Forced                                   : No
    Color primaries                          : BT.709
    Transfer characteristics                 : BT.709
    Matrix coefficients                      : BT.709
    
    Audio #1
    ID                                       : 2
    Format                                   : AC-3
    Format/Info                              : Audio Coding 3
    Mode extension                           : CM (complete main)
    Format settings, Endianness              : Big
    Codec ID                                 : A_AC3
    Duration                                 : 41mn 35s
    Bit rate mode                            : Constant
    Bit rate                                 : 640 Kbps
    Channel(s)                               : 6 channels
    Channel positions                        : Front: L C R, Side: L R, LFE
    Sampling rate                            : 48.0 KHz
    Bit depth                                : 16 bits
    Compression mode                         : Lossy
    Stream size                              : 190 MiB (5%)
    Title                                    : MVO FocusStudio
    Language                                 : Russian
    Default                                  : Yes
    Forced                                   : No
    
    Audio #2
    ID                                       : 3
    Format                                   : AC-3
    Format/Info                              : Audio Coding 3
    Mode extension                           : CM (complete main)
    Format settings, Endianness              : Big
    Codec ID                                 : A_AC3
    Duration                                 : 41mn 35s
    Bit rate mode                            : Constant
    Bit rate                                 : 640 Kbps
    Channel(s)                               : 6 channels
    Channel positions                        : Front: L C R, Side: L R, LFE
    Sampling rate                            : 48.0 KHz
    Bit depth                                : 16 bits
    Compression mode                         : Lossy
    Stream size                              : 190 MiB (5%)
    Language                                 : English
    Default                                  : No
    Forced                                   : No
    
    
     
    • СКАЧАТЬ MAGNET
      (259,1 КБ, 191 Просмотров, Размер: 25,8 ГБ, Сидеры: 1, Личеры: 0, Скачали: 1) Золото
    • Загрузка...
    Последнее редактирование: 28 сен 2018
    lipovan нравится это.