Смертельное оружие / Lethal Weapon / Сезон: 2 / Серии: 1-10 (22) [WEB-DL 1080p]

Тема в разделе "Смертельное оружие", создана пользователем Devzz, 5 окт 2017.

  1. Devzz

    Devzz Administrator Команда форума

    Сообщения:
    225
    Смертельное оружие / Lethal Weapon
    2 сезон 1-10 серии


    Год выпуска: 2017
    Страна: США
    Жанр: драма, комедия, боевик
    Продолжительность: 22 х ~ 45 мин
    Озвучание: профессиональное многоголосое закадровое (FocusStudio)
    Субтитры
    : нет

    Режиссеры: Стив Бойум, МакДжи

    В ролях: Клейн Кроуфорд, Дэймон Уайанс, Джордана Брюстер, Данте Браун, Джонатан Фернандес, Чандлер Кинни, Кевин Рам, Киша Шарп, Флориана Лима и др.

    Описание: Сюжет сосредоточится на копе из Техаса, который, потеряв жену и ребёнка, перебирается на службу в Лос-Анджелес. Там ему суждено стать напарником уже немолодого детектива, которому из-за недавнего инфаркта врачи прописали избегать стрессов. Но с новым коллегой, буквально лезущим под пули, сделать это будет попросту невозможно.


    Релиз: [​IMG]



    Качество: WEB-DL 1080p [Amazon]
    Формат: MKV
    Видео: 1920x1080, 23.976 fps, x264 ~9000kbps avg, 0.267 bit/pixel
    Аудио Rus: 48 kHz, AC3, 6 ch, 640 kbps
    Аудио Eng: 48 kHz, AC3, 6 ch, 640 kbps

    Код:
    General
    Unique ID                   : 244833892827909594714994498211648680232 (0xB8314AE5333C9674A505B0914C3CB128)
    Complete name               : Lethal.Weapon.S02E01.WEB-DL.1080p.FocusStudio.mkv
    Format                      : Matroska
    Format version              : Version 4 / Version 2
    File size                   : 3.08 GiB
    Duration                    : 44 min
    Overall bit rate mode       : Variable
    Overall bit rate            : 9 979 kb/s
    Movie name                  : Lethal Weapon 2x01 @ FocusStudio
    Encoded date                : UTC 2017-10-05 15:26:26
    Writing application         : mkvmerge v8.1.0 ('Psychedelic Postcard') 64bit
    Writing library             : libebml v1.3.1 + libmatroska v1.4.2
    
    Video
    ID                          : 1
    Format                      : AVC
    Format/Info                 : Advanced Video Codec
    Format profile              : High@L4
    Format settings, CABAC      : Yes
    Format settings, ReFrames   : 4 frames
    Codec ID                    : V_MPEG4/ISO/AVC
    Duration                    : 44 min
    Bit rate mode               : Variable
    Bit rate                    : 8 500 kb/s
    Maximum bit rate            : 15.0 Mb/s
    Width                       : 1 920 pixels
    Height                      : 1 080 pixels
    Display aspect ratio        : 16:9
    Frame rate mode             : Constant
    Frame rate                  : 23.976 (24000/1001) FPS
    Color space                 : YUV
    Chroma subsampling          : 4:2:0
    Bit depth                   : 8 bits
    Scan type                   : Progressive
    Bits/(Pixel*Frame)          : 0.171
    Stream size                 : 2.62 GiB (85%)
    Default                     : Yes
    Forced                      : No
    Color range                 : Limited
    Color primaries             : BT.709
    Transfer characteristics    : BT.709
    Matrix coefficients         : BT.709
    
    Audio #1
    ID                          : 2
    Format                      : AC-3
    Format/Info                 : Audio Coding 3
    Mode extension              : CM (complete main)
    Format settings, Endianness : Big
    Codec ID                    : A_AC3
    Duration                    : 44 min
    Bit rate mode               : Constant
    Bit rate                    : 640 kb/s
    Channel(s)                  : 6 channels
    Channel positions           : Front: L C R, Side: L R, LFE
    Sampling rate               : 48.0 kHz
    Frame rate                  : 31.250 FPS (1536 spf)
    Compression mode            : Lossy
    Stream size                 : 202 MiB (6%)
    Title                       : MVO FocusStudio
    Language                    : Russian
    Default                     : Yes
    Forced                      : No
    
    Audio #2
    ID                          : 3
    Format                      : AC-3
    Format/Info                 : Audio Coding 3
    Mode extension              : CM (complete main)
    Format settings, Endianness : Big
    Codec ID                    : A_AC3
    Duration                    : 44 min
    Bit rate mode               : Constant
    Bit rate                    : 640 kb/s
    Channel(s)                  : 6 channels
    Channel positions           : Front: L C R, Side: L R, LFE
    Sampling rate               : 48.0 kHz
    Frame rate                  : 31.250 FPS (1536 spf)
    Compression mode            : Lossy
    Stream size                 : 202 MiB (6%)
    Language                    : English
    Default                     : No
    Forced                      : No
    
    
     
    • СКАЧАТЬ MAGNET
      (159,3 КБ, 635 Просмотров, Размер: 31,7 ГБ, Сидеры: 0, Личеры: 0, Золото
    • Загрузка...
    Последнее редактирование: 15 апр 2019
    Dreik и lipovan нравится это.