Все схвачено / Man with a plan / Сезон: 2 / Серии: 1-21 (21) [WEB-DL 1080p]

Тема в разделе "Все схвачено", создана пользователем Devzz, 14 дек 2016.

  1. Devzz

    Devzz Administrator Команда форума

    Сообщения:
    163
    Все схвачено / Man with a plan
    2 сезон

    Год выпуска: 2016
    Страна: США
    Жанр: комедия
    Продолжительность: 21 х ~ 22 мин
    Озвучание: профессиональное многоголосое закадровое (FocusStudio)
    Субтитры
    : нет

    Режиссеры: Джеймс Берроуз

    В ролях: Мэтт ЛеБлан, Лиза Снайдер, Кевин Нилон, Диана-Мария Рива, Джессика Чаффин, Грэйс Кауфман...

    Описание: Адам Бернс всю свою жизнь провел в командировках, пытаясь хоть как-то заработать деньги для семьи. Однако его супруге было далеко не весело в одиночестве. Кажется, что Энди одна занимается воспитанием детей. Но случается так, что главным героям приходится поменяться местами. Теперь Адам ведет домашнее хозяйство и воспитывает троих детишек. Мужчина начинает чувствовать, что не справляется, хотя ему это занятие казалось довольно простым и ненапряженным. В первые же дни Адам чувствует, что попал в самое пекло ада с маленькими чертятами, из которого выбраться невероятно сложно!


    Релиз: [​IMG]



    Качество: WEB-DL 1080p
    Формат: MKV
    Видео: 1920x1080 (16:9), 23.976 fps, MPEG-4 AVC ~9000 kbps, 0.18 bit/pixel
    Аудио Rus: 48 kHz, AC3 Dolby Digital, 3/2 (L,C,R,l,r) + LFE ch, 640.00 kbps
    Аудио Eng: 48 kHz, AC3 Dolby Digital, 3/2 (L,C,R,l,r) + LFE ch, 640.00 kbps

    General
    Unique ID : 224354052408317555296865330176666980354 (0xA8C904CDF71A307184BCC9A44F295002)
    Complete name : Man.With.A.Plan.S02E01.WEB-DL.1080p.FocusStudio.mkv
    Format : Matroska
    Format version : Version 4 / Version 2
    File size : 1.57 GiB
    Duration : 21 min 20 s
    Overall bit rate mode : Variable
    Overall bit rate : 10.5 Mb/s
    Movie name : Man With A Plan 2x01 @ FocusStudio
    Encoded date : UTC 2018-01-09 11:15:27
    Writing application : mkvmerge v8.1.0 ('Psychedelic Postcard') 64bit
    Writing library : libebml v1.3.1 + libmatroska v1.4.2

    Video
    ID : 1
    Format : AVC
    Format/Info : Advanced Video Codec
    Format profile : High@L4
    Format settings : CABAC / 4 Ref Frames
    Format settings, CABAC : Yes
    Format settings, ReFrames : 4 frames
    Codec ID : V_MPEG4/ISO/AVC
    Duration : 21 min 20 s
    Bit rate mode : Variable
    Bit rate : 9 029 kb/s
    Maximum bit rate : 15.0 Mb/s
    Width : 1 920 pixels
    Height : 1 080 pixels
    Display aspect ratio : 16:9
    Frame rate mode : Constant
    Frame rate : 23.976 (24000/1001) FPS
    Color space : YUV
    Chroma subsampling : 4:2:0
    Bit depth : 8 bits
    Scan type : Progressive
    Bits/(Pixel*Frame) : 0.182
    Stream size : 1.35 GiB (86%)
    Default : Yes
    Forced : No
    Color range : Limited
    Color primaries : BT.709
    Transfer characteristics : BT.709
    Matrix coefficients : BT.709

    Audio #1
    ID : 2
    Format : AC-3
    Format/Info : Audio Coding 3
    Codec ID : A_AC3
    Duration : 21 min 20 s
    Bit rate mode : Constant
    Bit rate : 640 kb/s
    Channel(s) : 6 channels
    Channel positions : Front: L C R, Side: L R, LFE
    Sampling rate : 48.0 kHz
    Frame rate : 31.250 FPS (1536 SPF)
    Bit depth : 16 bits
    Compression mode : Lossy
    Stream size : 97.7 MiB (6%)
    Title : MVO FocusStudio
    Language : Russian
    Service kind : Complete Main
    Default : Yes
    Forced : No

    Audio #2
    ID : 3
    Format : AC-3
    Format/Info : Audio Coding 3
    Codec ID : A_AC3
    Duration : 21 min 20 s
    Bit rate mode : Constant
    Bit rate : 640 kb/s
    Channel(s) : 6 channels
    Channel positions : Front: L C R, Side: L R, LFE
    Sampling rate : 48.0 kHz
    Frame rate : 31.250 FPS (1536 SPF)
    Bit depth : 16 bits
    Compression mode : Lossy
    Stream size : 97.7 MiB (6%)
    Language : English
    Service kind : Complete Main
    Default : No
    Forced : No
     
    • СКАЧАТЬ MAGNET
      (171,9 КБ, 187 Просмотров, Размер: 34 ГБ, Сидеры: 0, Личеры: 0, Скачали: 5) Золото
    • Загрузка...
    Последнее редактирование: 28 сен 2018
    Victor Vovk и Dreik нравится это.
  2. Victor Vovk
    Victor Vovk
    Я прошу прощения, но где 1й сезон? у вас лучший перевод этого сериала
    15 авг 2018
    1. Devzz
      Devzz
      16 авг 2018
      1. Victor Vovk
        Victor Vovk
        Спасибо что быстро ответили)
        16 авг 2018
  3. evgen
    evgen
    Встаньте пожалуйста на раздачу 2 сезона,немного докачать осталось
    1 ноя 2018