Дангал / Dangal [2016, Индия, драма, биография, спорт, BDRip 720p] MVO (FocusStudio)

Тема в разделе "Дангал", создана пользователем Dio, 31 авг 2017.

  1. Dio

    Dio Administrator

    Сообщения:
    152
    Дангал / Dangal


    Год выпуска: 2016
    Страна: Индия
    Жанр: драма, биография, спорт
    Продолжительность: 02:41:01
    Озвучание: профессиональное многоголосое закадровое (FocusStudio)
    Cубтитры
    : русские (форсированные на песни)

    Режиссёр: Нитеш Тивари

    В ролях: Аамир Кхан, Сакши Танвар, Фатима Сана Шаикх, Санья Малхотра, Апаршакти Хурана, Заира Васим, Сухани Бхатнагар, Ритвик Сахоре, Гириш Кулкарни, Анураг Арора, Махеш Балрадж, Виван Бхатена, Анмол Чаран

    Описание: История реально существующего спортсмена Махавира Сингха Пхогата, который по причине бедности был вынужден бросить спортивную борьбу, но поклялся воспитать сына, который станет в будущем олимпийским чемпионом. Но вот досада — у них с женой родились четыре дочки. Отец сначала отчаялся, но потом, увидев, что подросшие девчонки поколачивают одноклассников, решил всё же сделать из них спортсменок. Тренер из отца получился отменный.

    Релиз: [​IMG]



    Качество: BDRip 720p
    Формат: MKV
    Видео: 1280x536 (2.39:1), 24 fps, AVC, ~5510 kbps
    Аудио 1: AC3, 6 ch, 48 kHz, 640 kbps (MVO FocusStudio)
    Аудио 2: AC3, 6 ch, 48 kHz, 640 kbps (Хинди)

    Format : Matroska
    Format version : Version 4 / Version 2
    File size : 7.79 GiB
    Duration : 2h 41mn
    Overall bit rate : 6 928 Kbps
    Movie name : Dangal (2016) @ FocusStudio
    Encoded date : UTC 2017-08-31 18:16:46
    Writing application : mkvmerge v8.3.0 ('Over the Horizon') 64bit
    Writing library : libebml v1.3.1 + libmatroska v1.4.2

    Video
    ID : 1
    Format : AVC
    Format/Info : Advanced Video Codec
    Format profile : High@L4.1
    Format settings, CABAC : Yes
    Format settings, ReFrames : 12 frames
    Codec ID : V_MPEG4/ISO/AVC
    Duration : 2h 41mn
    Bit rate : 5 510 Kbps
    Width : 1 280 pixels
    Height : 536 pixels
    Display aspect ratio : 2.40:1
    Frame rate mode : Constant
    Frame rate : 24.000 fps
    Color space : YUV
    Coma subsampling : 4:2:0
    Bit depth : 8 bits
    Scan type : Progressive
    Bits/(Pixel*Frame) : 0.335
    Stream size : 6.20 GiB (80%)
    Writing library : x264 core 148 r2762 90a61ec
    Encoding settings : cabac=1 / ref=12 / deblock=1:-3:-3 / analyse=0x3:0x133 / me=tesa / subme=11 / psy=1 / psy_rd=1.05:0.00 / mixed_ref=1 / me_range=32 / coma_me=1 / trellis=2 / 8x8dct=1 / cqm=0 / deadzone=21,11 / fast_pskip=0 / coma_qp_offset=-2 / teads=12 / lookahead_teads=3 / sliced_teads=0 / nr=0 / decimate=0 / interlaced=0 / bluray_compat=0 / constrained_intra=0 / bframes=16 / b_pyramid=2 / b_adapt=2 / b_bias=0 / direct=3 / weightb=1 / open_gop=0 / weightp=2 / keyint=250 / keyint_min=24 / scenecut=40 / intra_refresh=0 / rc_lookahead=250 / rc=crf / mbtree=0 / crf=15.6 / qcomp=0.64 / qpmin=0 / qpmax=69 / qpstep=4 / vbv_maxrate=62500 / vbv_bufsize=78125 / crf_max=0.0 / nal_d=none / filler=0 / ip_ratio=1.30 / pb_ratio=1.20 / aq=3:0.75 / zones=1751,1869,crf=13.5/98721,98760,crf=13.5/115693,115762,crf=13.5/139715,139778,crf=13.5
    Default : Yes
    Forced : No
    Color range : Limited
    Matrix coefficients : BT.709

    Audio #1
    ID : 2
    Format : AC-3
    Format/Info : Audio Coding 3
    Mode extension : CM (complete main)
    Format settings, Endianness : Big
    Codec ID : A_AC3
    Duration : 2h 41mn
    Bit rate mode : Constant
    Bit rate : 640 Kbps
    Channel(s) : 6 channels
    Channel positions : Front: L C R, Side: L R, LFE
    Sampling rate : 48.0 KHz
    Frame rate : 31.250 fps (1536 spf)
    Compression mode : Lossy
    Stream size : 737 MiB (9%)
    Title : DD5.1 MVO FocusStudio
    Language : Russian
    Default : Yes
    Forced : No

    Audio #2
    ID : 3
    Format : AC-3
    Format/Info : Audio Coding 3
    Mode extension : CM (complete main)
    Format settings, Endianness : Big
    Codec ID : A_AC3
    Duration : 2h 41mn
    Bit rate mode : Constant
    Bit rate : 640 Kbps
    Channel(s) : 6 channels
    Channel positions : Front: L C R, Side: L R, LFE
    Sampling rate : 48.0 KHz
    Frame rate : 31.250 fps (1536 spf)
    Compression mode : Lossy
    Stream size : 737 MiB (9%)
    Title : DD5.1 Original
    Language : Hindi
    Default : No
    Forced : No

    Text #1
    ID : 4
    Format : ASS
    Codec ID : S_TEXT/ASS
    Codec ID/Info : Advanced Sub Station Alpha
    Compression mode : Lossless
    Title : Forced (Songs)
    Language : Russian
    Default : Yes
    Forced : Yes

    Text #2
    ID : 5
    Format : UTF-8
    Codec ID : S_TEXT/UTF8
    Codec ID/Info : UTF-8 Plain Text
    Language : English
    Default : No
    Forced : No

    Menu
    00:00:00.000 : en:Mahavir's Dream
    00:10:33.833 : en:Mahavir's Despair
    00:16:23.542 : en:Hope Returns
    00:20:57.833 : en:Haanikaarak Baapu
    00:28:12.333 : en:Geeta & Babita's Training
    00:32:35.500 : en:Mahavir vs. Rest
    00:36:22.708 : en:Geeta & Babita's Revolt
    00:43:44.708 : en:Geeta & Babita's Realization
    00:47:31.250 : en:Geeta's First Dangal
    00:56:42.833 : en:Dhaakad
    00:59:54.583 : en:Mahavir's Sacrifice
    01:02:47.625 : en:Geeta's Victory March
    01:12:08.333 : en:Geeta Arrives at Nsa
    01:15:28.000 : en:Geeta Experiences Freedom
    01:26:24.625 : en:Geeta vs. Babita
    01:34:05.250 : en:Babita Goes to Nsa
    01:41:23.542 : en:Mahavir Comes to Patiala
    01:45:18.833 : en:Geeta & Babita's Double Training
    01:51:11.583 : en:Geeta's Distant Training
    01:56:49.458 : en:Geeta's First Match
    02:04:11.542 : en:Semifinal Match
    02:13:32.417 : en:Coach's Desperation
    02:18:20.000 : en:The Final Match
    02:31:53.667 : en:Tears of Joy
     
    • СКАЧАТЬ MAGNET
      (78,5 КБ, 6.315 Просмотров, Размер: 7,8 ГБ, Сидеры: 0, Личеры: 0, Золото
    • Загрузка...
    Последнее редактирование модератором: 15 апр 2019